Поиск

2018 Lynne Arriale Trio - Give Us These Days {Challenge} [24-96]

2018 Lynne Arriale Trio - Give Us These Days {Challenge} [24-96]
Издатель (лейбл):
Треклист:

Формат записи/Источник записи: [TR24][OF]
Наличие водяных знаков: Нет
Год издания: 2018
Продолжительность: 00:50:26
Контейнер: FLAC (*.flac)
Тип рипа: tracks
Разрядность: 24/96
Формат: PCM
Количество каналов: 2.0
Источник (релизер): qobuz.com

Треклист:
1. Woodstock (06:18)
2. Appassionata (06:24)
3. Finding Home (05:46)
4. Give Us These Days (05:12)
5. Slightly off Center (05:17)
6. Another Sky (05:20)
7. Let It Be (06:01)
8. Over and Out (05:02)
9. Take It with Me (05:06)

 
Лог проверки качества
foobar2000 1.3.17 / Замер динамического диапазона (DR) 1.1.1
Дата отчёта:  2018-06-06 23:47:22
--------------------------------------------------------------------------------
Анализ:   Lynne Arriale Trio / Give Us These Days
--------------------------------------------------------------------------------
DR         Пики         RMS           Продолжительность трека
--------------------------------------------------------------------------------
DR12       0.00 дБ   -14.66 дБ      6:19 01-Woodstock
DR9       -0.80 дБ   -12.41 дБ      6:24 02-Appassionata
DR12       0.00 дБ   -14.16 дБ      5:47 03-Finding Home
DR11       0.00 дБ   -14.88 дБ      5:13 04-Give Us These Days
DR10       0.00 дБ   -12.67 дБ      5:17 05-Slightly off Center
DR13       0.00 дБ   -15.32 дБ      5:20 06-Another Sky
DR11      -1.65 дБ   -16.06 дБ      6:02 07-Let It Be
DR9        0.00 дБ   -11.23 дБ      5:02 08-Over and Out
DR12       0.00 дБ   -17.24 дБ      5:07 09-Take It with Me
--------------------------------------------------------------------------------
Количество треков: 9
Реальные значения DR: DR11
Частота:  96000 Гц
Каналов:  2
Разрядность:   24
Битрейт:  2602 кбит/с
Кодек:   FLAC
================================================================================

 

Приватный:
Нет (DHT включён)
Размер:
1008.86 Мб (1,057,868,937 байт) » файлов: 11
Участники:
8 раздают, 0 качают (8 участников всего)
Внешние участники:
1 раздают, 0 качают (1 участников всего) [ Обновить ]
Нет сидеров - пишите личное сообщение M0p94ok. Не нравятся торренты? Участники группы Pro-jazz Club могут заказать прямую ссылку на скачивание из облака.
No seeders - write a personal message to M0p94ok. Don't like torrents? Members of Pro-jazz Club group can order a direct download link from the cloud.
22:16
197
Нет комментариев. Ваш будет первым!