Поиск

2018 Keith Jarrett - La Fenice (2CD) {ECM 2601} [CD]

2018 Keith Jarrett - La Fenice (2CD) {ECM 2601} [CD]
Страна-производитель диска (релиза):
Germany
Дата записи диска:
19 июля 2006
Место записи:
Gran Teatro La Fenice, Venice
Дата издания диска:
26 октября 2018
Издатель (лейбл):
Номер по каталогу:
2601
Носитель:
CD
Аудиокодек:
FLAC (*.flac)
Тип рипа:
tracks+.cue
Битрейт аудио:
lossless
Время звучания:
00:44:50 / 00:52:53
Наличие сканов:
нет
Релизёр (источник):
www
Треклист:

CD1

01. Part I [17:44]
02. Part II [03:26]
03. Part III [09:47]
04. Part IV [07:15]
05. Part V [06:36]

CD2

01. Part VI [13:32]
02. The Sun Whose Rays [04:22]
03. Part VII [05:30]
04. Part VIII [07:15]
05. My Wild Irish Rose [07:03]
06. Stella By Starlight [06:33]
07. Blossom [08:35]

 
Логи создания рипа
 
CD01
X Lossless Decoder version 20181001 (151.0)
XLD extraction logfile from 2018-10-26 20:53:17 -0400
Keith Jarrett / La Fenice  CD 1
Used drive : Apple SuperDrive (revision 2.00)
Media type : Pressed CD
Ripper mode             : XLD Secure Ripper
Disable audio cache     : OK for the drive with a cache less than 1375KiB
Make use of C2 pointers : NO
Read offset correction  : 6
Max retry count         : 100
Gap status              : Analyzed, Appended (except HTOA)
TOC of the extracted CD
     Track |   Start  |  Length  | Start sector | End sector
    ---------------------------------------------------------
        1  | 00:00:00 | 17:44:23 |         0    |    79822
        2  | 17:44:23 | 03:26:32 |     79823    |    95304
        3  | 21:10:55 | 09:47:58 |     95305    |   139387
        4  | 30:58:38 | 07:15:55 |    139388    |   172067
        5  | 38:14:18 | 06:36:00 |    172068    |   201767
AccurateRip Summary
    Disc not found in AccurateRip DB.
All Tracks
    Album gain               : 0.55 dB
    Peak                     : 0.878418
    Statistics
        Read error                           : 0
        Jitter error (maybe fixed)           : 0
        Retry sector count                   : 0
        Damaged sector count                 : 0
Track 01
    Filename : /Users/bill/Desktop/XLD/Keith Jarrett - La Fenice - FLAC/01 - Part I.flac
    Pre-gap length : 00:02:00
    Track gain               : 1.37 dB
    Peak                     : 0.864044
    CRC32 hash (test run)    : FD2FC0D6
    CRC32 hash               : FD2FC0D6
    CRC32 hash (skip zero)   : 2E9DA381
    AccurateRip v1 signature : 1941571A
    AccurateRip v2 signature : 56942063
        ->Track not present in AccurateRip database.
    Statistics
        Read error                           : 0
        Jitter error (maybe fixed)           : 0
        Retry sector count                   : 0
        Damaged sector count                 : 0
Track 02
    Filename : /Users/bill/Desktop/XLD/Keith Jarrett - La Fenice - FLAC/02 - Part II.flac
    Track gain               : -0.92 dB
    Peak                     : 0.877655
    CRC32 hash (test run)    : E79FC186
    CRC32 hash               : E79FC186
    CRC32 hash (skip zero)   : 7502A77D
    AccurateRip v1 signature : F496DD95
    AccurateRip v2 signature : 1F14B9A2
        ->Track not present in AccurateRip database.
    Statistics
        Read error                           : 0
        Jitter error (maybe fixed)           : 0
        Retry sector count                   : 0
        Damaged sector count                 : 0
Track 03
    Filename : /Users/bill/Desktop/XLD/Keith Jarrett - La Fenice - FLAC/03 - Part III.flac
    Track gain               : 0.69 dB
    Peak                     : 0.715790
    CRC32 hash (test run)    : 08393C8B
    CRC32 hash               : 08393C8B
    CRC32 hash (skip zero)   : 44BC732A
    AccurateRip v1 signature : BAA9403F
    AccurateRip v2 signature : CE647008
        ->Track not present in AccurateRip database.
    Statistics
        Read error                           : 0
        Jitter error (maybe fixed)           : 0
        Retry sector count                   : 0
        Damaged sector count                 : 0
Track 04
    Filename : /Users/bill/Desktop/XLD/Keith Jarrett - La Fenice - FLAC/04 - Part IV.flac
    Track gain               : 2.18 dB
    Peak                     : 0.715973
    CRC32 hash (test run)    : C8AD48B7
    CRC32 hash               : C8AD48B7
    CRC32 hash (skip zero)   : 6A19DDE3
    AccurateRip v1 signature : 0DF070A3
    AccurateRip v2 signature : BAB5D23F
        ->Track not present in AccurateRip database.
    Statistics
        Read error                           : 0
        Jitter error (maybe fixed)           : 0
        Retry sector count                   : 0
        Damaged sector count                 : 0
Track 05
    Filename : /Users/bill/Desktop/XLD/Keith Jarrett - La Fenice - FLAC/05 - Part V.flac
    Track gain               : -0.88 dB
    Peak                     : 0.878418
    CRC32 hash (test run)    : 2E57C694
    CRC32 hash               : 2E57C694
    CRC32 hash (skip zero)   : A1395E10
    AccurateRip v1 signature : 57BAA82D
    AccurateRip v2 signature : 4FFBE263
        ->Track not present in AccurateRip database.
    Statistics
        Read error                           : 0
        Jitter error (maybe fixed)           : 0
        Retry sector count                   : 0
        Damaged sector count                 : 0
No errors occurred
End of status report
-----BEGIN XLD SIGNATURE-----
cgqVL2SKMpJBmYYc4dgfXsV_xlsFSnuqEH26ff8NEFOUdbJCJUd51fEyiij_AiZcXQSsmvVdxy_673K_y_v785O4VKbpDjiz0w246O4
-----END XLD SIGNATURE-----
 
CD02
X Lossless Decoder version 20181001 (151.0)
XLD extraction logfile from 2018-10-26 21:11:59 -0400
Keith Jarrett / La Fenice
Used drive : Apple SuperDrive (revision 2.00)
Media type : Pressed CD
Ripper mode             : XLD Secure Ripper
Disable audio cache     : OK for the drive with a cache less than 1375KiB
Make use of C2 pointers : NO
Read offset correction  : 6
Max retry count         : 100
Gap status              : Analyzed, Appended (except HTOA)
TOC of the extracted CD
     Track |   Start  |  Length  | Start sector | End sector
    ---------------------------------------------------------
        1  | 00:00:00 | 13:32:61 |         0    |    60960
        2  | 13:32:61 | 04:22:55 |     60961    |    80665
        3  | 17:55:41 | 05:30:42 |     80666    |   105457
        4  | 23:26:08 | 07:15:56 |    105458    |   138138
        5  | 30:41:64 | 07:03:40 |    138139    |   169903
        6  | 37:45:29 | 06:33:05 |    169904    |   199383
        7  | 44:18:34 | 08:35:06 |    199384    |   238014
AccurateRip Summary
    Disc not found in AccurateRip DB.
All Tracks
    Album gain               : 0.89 dB
    Peak                     : 0.931427
    Statistics
        Read error                           : 0
        Jitter error (maybe fixed)           : 0
        Retry sector count                   : 0
        Damaged sector count                 : 0
Track 01
    Filename : /Users/bill/Desktop/XLD/Keith Jarrett - La Fenice - FLAC/CD2/01 - Part VI.flac
    Pre-gap length : 00:02:00
    Track gain               : 1.51 dB
    Peak                     : 0.891174
    CRC32 hash (test run)    : DF0CB4BD
    CRC32 hash               : DF0CB4BD
    CRC32 hash (skip zero)   : AE28351C
    AccurateRip v1 signature : 319833AA
    AccurateRip v2 signature : 0046CFCE
        ->Track not present in AccurateRip database.
    Statistics
        Read error                           : 0
        Jitter error (maybe fixed)           : 0
        Retry sector count                   : 0
        Damaged sector count                 : 0
Track 02
    Filename : /Users/bill/Desktop/XLD/Keith Jarrett - La Fenice - FLAC/CD2/02 - The Sun Whose Rays.flac
    Track gain               : 3.27 dB
    Peak                     : 0.684509
    CRC32 hash (test run)    : C25C51FF
    CRC32 hash               : C25C51FF
    CRC32 hash (skip zero)   : 459C8916
    AccurateRip v1 signature : ED7023A8
    AccurateRip v2 signature : B2E1B319
        ->Track not present in AccurateRip database.
    Statistics
        Read error                           : 0
        Jitter error (maybe fixed)           : 0
        Retry sector count                   : 0
        Damaged sector count                 : 0
Track 03
    Filename : /Users/bill/Desktop/XLD/Keith Jarrett - La Fenice - FLAC/CD2/03 - Part VII.flac
    Track gain               : 1.74 dB
    Peak                     : 0.647400
    CRC32 hash (test run)    : 7CE53459
    CRC32 hash               : 7CE53459
    CRC32 hash (skip zero)   : ABBAD00E
    AccurateRip v1 signature : C7BA3F0F
    AccurateRip v2 signature : 9EF081FF
        ->Track not present in AccurateRip database.
    Statistics
        Read error                           : 0
        Jitter error (maybe fixed)           : 0
        Retry sector count                   : 0
        Damaged sector count                 : 0
Track 04
    Filename : /Users/bill/Desktop/XLD/Keith Jarrett - La Fenice - FLAC/CD2/04 - Part VIII.flac
    Track gain               : 1.09 dB
    Peak                     : 0.930237
    CRC32 hash (test run)    : C1485F4D
    CRC32 hash               : C1485F4D
    CRC32 hash (skip zero)   : 295B551F
    AccurateRip v1 signature : FB4B32A7
    AccurateRip v2 signature : 4FDE3194
        ->Track not present in AccurateRip database.
    Statistics
        Read error                           : 0
        Jitter error (maybe fixed)           : 0
        Retry sector count                   : 0
        Damaged sector count                 : 0
Track 05
    Filename : /Users/bill/Desktop/XLD/Keith Jarrett - La Fenice - FLAC/CD2/05 - My Wild Irish Rose.flac
    Track gain               : -0.07 dB
    Peak                     : 0.931427
    CRC32 hash (test run)    : 61B3B0D2
    CRC32 hash               : 61B3B0D2
    CRC32 hash (skip zero)   : 3D3B89AC
    AccurateRip v1 signature : D64B3BB9
    AccurateRip v2 signature : 55469733
        ->Track not present in AccurateRip database.
    Statistics
        Read error                           : 0
        Jitter error (maybe fixed)           : 0
        Retry sector count                   : 0
        Damaged sector count                 : 0
Track 06
    Filename : /Users/bill/Desktop/XLD/Keith Jarrett - La Fenice - FLAC/CD2/06 - Stella By Starlight.flac
    Track gain               : -1.01 dB
    Peak                     : 0.847961
    CRC32 hash (test run)    : B0680145
    CRC32 hash               : B0680145
    CRC32 hash (skip zero)   : DE401FF2
    AccurateRip v1 signature : 5CAF863F
    AccurateRip v2 signature : 4926E6F2
        ->Track not present in AccurateRip database.
    Statistics
        Read error                           : 0
        Jitter error (maybe fixed)           : 0
        Retry sector count                   : 0
        Damaged sector count                 : 0
Track 07
    Filename : /Users/bill/Desktop/XLD/Keith Jarrett - La Fenice - FLAC/CD2/07 - Blossom.flac
    Track gain               : 2.69 dB
    Peak                     : 0.702209
    CRC32 hash (test run)    : CACC67F3
    CRC32 hash               : CACC67F3
    CRC32 hash (skip zero)   : 3EDEFE3D
    AccurateRip v1 signature : A6E6505B
    AccurateRip v2 signature : E8B47D05
        ->Track not present in AccurateRip database.
    Statistics
        Read error                           : 0
        Jitter error (maybe fixed)           : 0
        Retry sector count                   : 0
        Damaged sector count                 : 0
No errors occurred
End of status report
-----BEGIN XLD SIGNATURE-----
effNFhu7LdLSWgxCCoXlMIKM6t2AcqB38D.nbreVuFv6Bc5pBQstNiB6dnaeI3NH8c5OvOG7QYETSveTjNWhtP1xwlkp3hMI8f9k8XC
-----END XLD SIGNATURE-----
 
Содержание индексной карты (.CUE)
 
CD01
TITLE "La Fenice  CD 1"
PERFORMER "Keith Jarrett"
CATALOG 0602567658566
REM GENRE "Jazz"
REM DATE "2018"
REM DISCID 3D0A8205
REM REPLAYGAIN_ALBUM_GAIN 0.55 dB
REM REPLAYGAIN_ALBUM_PEAK 0.878418
FILE "01 - Part I.flac" WAVE
  TRACK 01 AUDIO
    TITLE "Part I"
    ISRC DEB330660101
    REM REPLAYGAIN_TRACK_GAIN 1.37 dB
    REM REPLAYGAIN_TRACK_PEAK 0.864044
    INDEX 01 00:00:00
FILE "02 - Part II.flac" WAVE
  TRACK 02 AUDIO
    TITLE "Part II"
    ISRC DEB330660102
    REM REPLAYGAIN_TRACK_GAIN -0.92 dB
    REM REPLAYGAIN_TRACK_PEAK 0.877655
    INDEX 01 00:00:00
FILE "03 - Part III.flac" WAVE
  TRACK 03 AUDIO
    TITLE "Part III"
    ISRC DEB330660103
    REM REPLAYGAIN_TRACK_GAIN 0.69 dB
    REM REPLAYGAIN_TRACK_PEAK 0.715790
    INDEX 01 00:00:00
FILE "04 - Part IV.flac" WAVE
  TRACK 04 AUDIO
    TITLE "Part IV"
    ISRC DEB330660104
    REM REPLAYGAIN_TRACK_GAIN 2.18 dB
    REM REPLAYGAIN_TRACK_PEAK 0.715973
    INDEX 01 00:00:00
FILE "05 - Part V.flac" WAVE
  TRACK 05 AUDIO
    TITLE "Part V"
    ISRC DEB330660105
    REM REPLAYGAIN_TRACK_GAIN -0.88 dB
    REM REPLAYGAIN_TRACK_PEAK 0.878418
    INDEX 01 00:00:00
 
CD02
TITLE "La Fenice"
PERFORMER "Keith Jarrett"
CATALOG 0602567658573
REM GENRE "Jazz"
REM DATE "2018"
REM DISCNUMBER 2
REM TOTALDISCS 2
REM DISCID 5A0C6507
REM REPLAYGAIN_ALBUM_GAIN 0.89 dB
REM REPLAYGAIN_ALBUM_PEAK 0.931427
FILE "01 - Part VI.flac" WAVE
  TRACK 01 AUDIO
    TITLE "Part VI"
    ISRC DEB330660201
    REM REPLAYGAIN_TRACK_GAIN 1.51 dB
    REM REPLAYGAIN_TRACK_PEAK 0.891174
    INDEX 01 00:00:00
FILE "02 - The Sun Whose Rays.flac" WAVE
  TRACK 02 AUDIO
    TITLE "The Sun Whose Rays"
    ISRC DEB330660202
    REM REPLAYGAIN_TRACK_GAIN 3.27 dB
    REM REPLAYGAIN_TRACK_PEAK 0.684509
    INDEX 01 00:00:00
FILE "03 - Part VII.flac" WAVE
  TRACK 03 AUDIO
    TITLE "Part VII"
    ISRC DEB330660203
    REM REPLAYGAIN_TRACK_GAIN 1.74 dB
    REM REPLAYGAIN_TRACK_PEAK 0.647400
    INDEX 01 00:00:00
FILE "04 - Part VIII.flac" WAVE
  TRACK 04 AUDIO
    TITLE "Part VIII"
    ISRC DEB330660204
    REM REPLAYGAIN_TRACK_GAIN 1.09 dB
    REM REPLAYGAIN_TRACK_PEAK 0.930237
    INDEX 01 00:00:00
FILE "05 - My Wild Irish Rose.flac" WAVE
  TRACK 05 AUDIO
    TITLE "My Wild Irish Rose"
    ISRC DEB330660205
    REM REPLAYGAIN_TRACK_GAIN -0.07 dB
    REM REPLAYGAIN_TRACK_PEAK 0.931427
    INDEX 01 00:00:00
FILE "06 - Stella By Starlight.flac" WAVE
  TRACK 06 AUDIO
    TITLE "Stella By Starlight"
    ISRC DEB330660206
    REM REPLAYGAIN_TRACK_GAIN -1.01 dB
    REM REPLAYGAIN_TRACK_PEAK 0.847961
    INDEX 01 00:00:00
FILE "07 - Blossom.flac" WAVE
  TRACK 07 AUDIO
    TITLE "Blossom"
    ISRC DEB330660207
    REM REPLAYGAIN_TRACK_GAIN 2.69 dB
    REM REPLAYGAIN_TRACK_PEAK 0.702209
    INDEX 01 00:00:00
Приватный:
Нет (DHT включён)
Размер:
379.82 Мб (398,270,611 байт) » файлов: 17
Участники:
9 раздают, 0 качают (9 участников всего)
Внешние участники:
23 раздают, 8 качают (31 участников всего) [ Обновить ]
20:16
46
Нет комментариев. Ваш будет первым!