Поиск

2018 Karl Strømme Quintet - Dynalyd {Riverboat} [WEB]

2018 Karl Strømme Quintet - Dynalyd {Riverboat} [WEB]
Битрейт аудио:
lossless
Треклист:

1. Molladalen. 6:52
2. Huk. 5:41
3. Strømme´s Mood. 5:52
4. Dynalyd. 4:58
5. Alma. 5:50
6. Jessenløkka. 9:04
7. Portør. 6:06

 
DRM.log
foobar2000 1.3.8 / Dynamic Range Meter 1.1.1
log date: 2018-12-29 00:21:25
--------------------------------------------------------------------------------
Analyzed: Karl Strømme Quintet / Dynalyd
--------------------------------------------------------------------------------
DR         Peak         RMS     Duration Track
--------------------------------------------------------------------------------
DR11      -0.17 dB   -13.27 dB      6:53 01-Molladalen
DR10      -0.57 dB   -14.02 dB      5:42 02-Huk
DR9        0.00 dB   -12.08 dB      5:52 03-Strømme´s Mood
DR9       -1.31 dB   -11.56 dB      4:59 04-Dynalyd
DR10      -1.39 dB   -13.80 dB      5:51 05-Alma
DR10      -0.40 dB   -12.30 dB      9:05 06-Jessenløkka
DR10      -1.82 dB   -14.59 dB      6:06 07-Portør
--------------------------------------------------------------------------------
Number of tracks:  7
Official DR value: DR10
Samplerate:        44100 Hz
Channels:          2
Bits per sample:   16
Bitrate:           728 kbps
Codec:             FLAC
================================================================================
Лог проверки качества
-----------------------

DON'T MODIFY THIS FILE

-----------------------

PERFORMER: auCDtect Task Manager, ver. 1.6.0 RC1 build 1.6.0.1
Copyright (c) 2008-2010 y-soft. All rights reserved
http://y-soft.org

ANALYZER: auCDtect: CD records authenticity detector, version 0.8.2
Copyright (c) 2004 Oleg Berngardt. All rights reserved.
Copyright (c) 2004 Alexander Djourik. All rights reserved.

FILE: 07 Portør.flac
  Size: 33448088 Hash: 88D935F85BCAEC05B374AD587F18654C Accuracy: -m0
  Conclusion: CDDA 100%
  Signature: FC1E69075BC82FE57B4C42A66A4144CD8616AE16
FILE: 01 Molladalen.flac
  Size: 42457682 Hash: 8C1627276EAE83A4B9481A622F1F97C1 Accuracy: -m0
  Conclusion: CDDA 99%
  Signature: D3F562A106CD7DE59F7C26162BFF0CC79D84139C
FILE: 02 Huk.flac
  Size: 30917114 Hash: 51DEDDC5D2D51494A038543745E3BECC Accuracy: -m0
  Conclusion: CDDA 99%
  Signature: 78CC28E4C70D8F9052D3E0E2BDC3DDD0D2E156B8
FILE: 03 Strømme´s Mood.flac
  Size: 35482910 Hash: C2D5C306B353A74E460FC4083C64DCBE Accuracy: -m0
  Conclusion: CDDA 100%
  Signature: 6F1A383FA266A2DF3F6A24D882D3F742835C5477
FILE: 04 Dynalyd.flac
  Size: 33023936 Hash: 7EA15F713FACE7BF8E73843F7D949A05 Accuracy: -m0
  Conclusion: CDDA 100%
  Signature: D2EDE119857A8B8C2135FAC5E85B702E3E857EEF
FILE: 05 Alma.flac
  Size: 30251004 Hash: 17E31D49049C2BD8E6D7AD7807E885AB Accuracy: -m0
  Conclusion: CDDA 99%
  Signature: B677424ED96A9CA1A27ED7245A4CE3242AF2BD9D
FILE: 06 Jessenløkka.flac
  Size: 55088823 Hash: 5635E9AAB8904F2A2383CC3D60AA011F Accuracy: -m0
  Conclusion: CDDA 100%
  Signature: 5C1551438477A2A4EC9D120D048F543A03BD3645
Скачивание доступно после регистрации!!
Приватный:
Нет (DHT включён)
Размер:
249.27 Мб (261,381,892 байт) » файлов: 12
Участники:
0 раздают, 0 качают (0 участников всего)
Внешние участники:
--- [ Обновить ]
11:08
58
Нет комментариев. Ваш будет первым!