Поиск

2016 Construction - Centreline Theory {Leo CD LR 759} [CD]

2016 Construction - Centreline Theory {Leo CD LR 759} [CD]
Битрейт аудио:
lossless
Треклист:

01. Attack And Defense Pyramids 5:03
02. Saam Paa Fut (Three Times Praying To Buddha) 6:15
03. Syeung Don Teen (Space Between The Eyes) 3:45
04. Abandon 8:05
05. The Octave Doctors And The Crystal Machine 4:56
06. Centreline Theory 5:29
07. HELM 2:25
08. 108 Movements 3:40
09. Journeys Art 6:25
10. Skavsta 6:11
11. Contraband 5:15

Recorded at Conversion Studios, October 2014.

Лог создания рипа
Exact Audio Copy V1.0 beta 3 from 29. August 2011

EAC extraction logfile from 28. December 2018, 9:05

Construction / Centreline Theory

Used drive  : ASUS    DRW-24F1ST   a   Adapter: 0  ID: 0

Read mode               : Secure
Utilize accurate stream : Yes
Defeat audio cache      : Yes
Make use of C2 pointers : No

Read offset correction                      : 6
Overread into Lead-In and Lead-Out          : No
Fill up missing offset samples with silence : Yes
Delete leading and trailing silent blocks   : No
Null samples used in CRC calculations       : Yes
Used interface                              : Native Win32 interface for Win NT & 2000
Gap handling                                : Appended to previous track

Used output format              : User Defined Encoder
Selected bitrate                : 320 kBit/s
Quality                         : High
Add ID3 tag                     : No
Command line compressor         : D:\Programs\Exact Audio Copy\Flac\flac.exe
Additional command line options : -V -8 -T "Genre=%genre%" -T "Artist=%artist%" -T "Title=%title%" -T "Album=%albumtitle%" -T "Date=%year%" -T "Tracknumber=%tracknr%" -T "Comment=%comment%" %source%

TOC of the extracted CD

     Track |   Start  |  Length  | Start sector | End sector
    ---------------------------------------------------------
        1  |  0:00.00 |  5:03.42 |         0    |    22766
        2  |  5:03.42 |  6:16.50 |     22767    |    51016
        3  | 11:20.17 |  3:47.01 |     51017    |    68042
        4  | 15:07.18 |  8:05.28 |     68043    |   104445
        5  | 23:12.46 |  4:56.65 |    104446    |   126710
        6  | 28:09.36 |  5:29.56 |    126711    |   151441
        7  | 33:39.17 |  2:26.54 |    151442    |   162445
        8  | 36:05.71 |  3:40.19 |    162446    |   178964
        9  | 39:46.15 |  6:25.40 |    178965    |   207879
       10  | 46:11.55 |  6:12.15 |    207880    |   235794
       11  | 52:23.70 |  5:16.20 |    235795    |   259514

Track  1

     Filename C:\Users\user\Intel\Downloads\01 Attack And Defense Pyramids.wav

     Pre-gap length  0:00:02.00

     Peak level 97.1 %
     Extraction speed 3.6 X
     Track quality 100.0 %
     Test CRC 747F28B0
     Copy CRC 747F28B0
     Accurately ripped (confidence 1)  [F5D8E09D]  (AR v2)
     Copy OK

Track  2

     Filename C:\Users\user\Intel\Downloads\02 Saam Pai Fut.wav

     Peak level 97.3 %
     Extraction speed 4.2 X
     Track quality 100.0 %
     Test CRC 6E9B1A8D
     Copy CRC 6E9B1A8D
     Accurately ripped (confidence 1)  [2AC73E93]  (AR v2)
     Copy OK

Track  3

     Filename C:\Users\user\Intel\Downloads\03 Syeung Don Teen.wav

     Peak level 96.8 %
     Extraction speed 4.3 X
     Track quality 100.0 %
     Test CRC 39257A18
     Copy CRC 39257A18
     Accurately ripped (confidence 1)  [2E148C17]  (AR v2)
     Copy OK

Track  4

     Filename C:\Users\user\Intel\Downloads\04 Abandon.wav

     Peak level 97.2 %
     Extraction speed 4.8 X
     Track quality 99.9 %
     Test CRC F2F69B9E
     Copy CRC F2F69B9E
     Accurately ripped (confidence 1)  [2F8085EA]  (AR v2)
     Copy OK

Track  5

     Filename C:\Users\user\Intel\Downloads\05 The Octave Doctors and the Crystal Machine.wav

     Peak level 96.6 %
     Extraction speed 5.3 X
     Track quality 100.0 %
     Test CRC 37590247
     Copy CRC 37590247
     Accurately ripped (confidence 1)  [E1DB2E19]  (AR v2)
     Copy OK

Track  6

     Filename C:\Users\user\Intel\Downloads\06 Centreline Theory.wav

     Peak level 97.6 %
     Extraction speed 5.7 X
     Track quality 100.0 %
     Test CRC 17047160
     Copy CRC 17047160
     Accurately ripped (confidence 1)  [60032943]  (AR v2)
     Copy OK

Track  7

     Filename C:\Users\user\Intel\Downloads\07 Helm.wav

     Peak level 96.3 %
     Extraction speed 4.3 X
     Track quality 99.9 %
     Test CRC 8EF57401
     Copy CRC 8EF57401
     Accurately ripped (confidence 1)  [23D86416]  (AR v2)
     Copy OK

Track  8

     Filename C:\Users\user\Intel\Downloads\08 108 Movements.wav

     Peak level 96.7 %
     Extraction speed 5.7 X
     Track quality 100.0 %
     Test CRC 321809B1
     Copy CRC 321809B1
     Accurately ripped (confidence 1)  [868563EB]  (AR v2)
     Copy OK

Track  9

     Filename C:\Users\user\Intel\Downloads\09 Journeys Art.wav

     Peak level 96.7 %
     Extraction speed 6.3 X
     Track quality 100.0 %
     Test CRC 12A49A94
     Copy CRC 12A49A94
     Accurately ripped (confidence 1)  [1602A033]  (AR v2)
     Copy OK

Track 10

     Filename C:\Users\user\Intel\Downloads\10 Skavsta.wav

     Peak level 96.5 %
     Extraction speed 6.1 X
     Track quality 99.9 %
     Test CRC FBCB0EF9
     Copy CRC FBCB0EF9
     Accurately ripped (confidence 1)  [84F2FC5D]  (AR v2)
     Copy OK

Track 11

     Filename C:\Users\user\Intel\Downloads\11 Contraband.wav

     Peak level 96.7 %
     Extraction speed 6.8 X
     Track quality 100.0 %
     Test CRC A9A13761
     Copy CRC A9A13761
     Accurately ripped (confidence 1)  [EF888F56]  (AR v2)
     Copy OK

All tracks accurately ripped

No errors occurred

End of status report

==== Log checksum 6356FB8EAA5E85D969CDA133CB1396A27F3951E69DEADEFFDA929D8D7380F277 ====
Содержание индексной карты (.CUE)
REM GENRE Jazz
REM DATE 2016
REM DISCID 980D840B
REM COMMENT "ExactAudioCopy v1.0b3"
PERFORMER "Construction"
TITLE "Centreline Theory"
FILE "01 Attack And Defense Pyramids.wav" WAVE
  TRACK 01 AUDIO
    TITLE "Attack And Defense Pyramids"
    PERFORMER "Construction"
    ISRC GBJZD1600270
    FLAGS DCP
    INDEX 01 00:00:00
FILE "02 Saam Pai Fut.wav" WAVE
  TRACK 02 AUDIO
    TITLE "Saam Pai Fut"
    PERFORMER "Construction"
    ISRC GBJZD1600271
    FLAGS DCP
    INDEX 01 00:00:00
FILE "03 Syeung Don Teen.wav" WAVE
  TRACK 03 AUDIO
    TITLE "Syeung Don Teen"
    PERFORMER "Construction"
    ISRC GBJZD1600272
    FLAGS DCP
    INDEX 01 00:00:00
FILE "04 Abandon.wav" WAVE
  TRACK 04 AUDIO
    TITLE "Abandon"
    PERFORMER "Construction"
    ISRC GBJZD1600273
    FLAGS DCP
    INDEX 01 00:00:00
FILE "05 The Octave Doctors and the Crystal Machine.wav" WAVE
  TRACK 05 AUDIO
    TITLE "The Octave Doctors and the Crystal Machine"
    PERFORMER "Construction"
    ISRC GBJZD1600274
    FLAGS DCP
    INDEX 01 00:00:00
FILE "06 Centreline Theory.wav" WAVE
  TRACK 06 AUDIO
    TITLE "Centreline Theory"
    PERFORMER "Construction"
    ISRC GBJZD1600275
    FLAGS DCP
    INDEX 01 00:00:00
FILE "07 Helm.wav" WAVE
  TRACK 07 AUDIO
    TITLE "Helm"
    PERFORMER "Construction"
    ISRC GBJZD1600276
    FLAGS DCP
    INDEX 01 00:00:00
FILE "08 108 Movements.wav" WAVE
  TRACK 08 AUDIO
    TITLE "108 Movements"
    PERFORMER "Construction"
    ISRC GBJZD1600277
    FLAGS DCP
    INDEX 01 00:00:00
FILE "09 Journeys Art.wav" WAVE
  TRACK 09 AUDIO
    TITLE "Journeys Art"
    PERFORMER "Construction"
    ISRC GBJZD1600278
    FLAGS DCP
    INDEX 01 00:00:00
FILE "10 Skavsta.wav" WAVE
  TRACK 10 AUDIO
    TITLE "Skavsta"
    PERFORMER "Construction"
    ISRC GBJZD1600279
    FLAGS DCP
    INDEX 01 00:00:00
FILE "11 Contraband.wav" WAVE
  TRACK 11 AUDIO
    TITLE "Contraband"
    PERFORMER "Construction"
    ISRC GBJZD1600279
    FLAGS DCP
    INDEX 01 00:00:00
Приватный:
Нет (DHT включён)
Размер:
338.81 Мб (355,267,318 байт) » файлов: 15
Участники:
0 раздают, 0 качают (0 участников всего)
Внешние участники:
--- [ Обновить ]
11:47
86
Нет комментариев. Ваш будет первым!