Вы используете незарегистрированную версию компонента "Вкладки"!

Поиск

2018 Julio Botti - Tango Blues {El Cirko Sello Digital} [24-88,2]

2018 Julio Botti - Tango Blues {El Cirko Sello Digital} [24-88,2]
Стили:
Носитель:
WEB
Формат:
PCM
Тип рипа:
tracks+.cue
Контейнер:
FLAC (*.flac)
Количество каналов:
2.0
Разрядность/ЧД:
24/88,2
Битрейт аудио:
lossless
Время звучания:
00:45:47
Наличие сканов:
web
Релизёр (источник):
M0p94ok
Лог проверки качества
foobar2000 1.5.5 / Dynamic Range Meter 1.1.1
log date: 2020-09-06 09:43:12

--------------------------------------------------------------------------------
Analyzed: Julio Botti, Andrew Baird / Tango Blues (1-2)
          Julio Botti, Juampy Juarez / Tango Blues (3)
          Julio Botti / Tango Blues (4-10)
--------------------------------------------------------------------------------

DR         Peak         RMS     Duration Track
--------------------------------------------------------------------------------
DR9       -1.32 dB   -12.55 dB      4:34 07-Oblivion
DR9       -1.20 dB   -12.29 dB      5:06 11-Tanguedia
DR8       -0.20 dB    -9.68 dB      3:32 04-Tango Blues
DR10      -0.20 dB   -11.30 dB      4:22 01-Upper West
DR10      -0.20 dB   -11.79 dB      3:36 02-Vitutti
DR9       -0.20 dB   -10.78 dB      3:26 03-Influence
DR9       -0.20 dB   -11.46 dB      4:55 05-El Choclo
DR9       -0.20 dB   -10.69 dB      3:52 06-Nuevo Viaje
DR10      -0.20 dB   -11.92 dB      3:38 08-Apt 605
DR10      -0.20 dB   -11.77 dB      4:31 10-Insecurity
--------------------------------------------------------------------------------

Number of tracks:  10
Official DR value: DR9

Samplerate:        88200 Hz
Channels:          2
Bits per sample:   24
Bitrate:           2820 kbps
Codec:             FLAC
================================================================================
Any questions - support@pro-jazz.com. Есть вопросы - support@pro-jazz.com
09:53
231
Нет комментариев. Ваш будет первым!