Вы используете незарегистрированную версию компонента "Вкладки"!

Поиск

1981 Pat Metheny Group - Offramp (2020) {ECM} [24-96]

1981 Pat Metheny Group - Offramp (2020) {ECM} [24-96]
Стили:
Издатель (лейбл):
Битрейт аудио:
lossless
Доп. инфо:

Формат записи/Источник записи: [TR24][OF]
Издание: Remastered
Год издания/переиздания диска: 1981/2020
Продолжительность: 00:42:38
Наличие сканов в содержимом раздачи: Нет

Контейнер: FLAC (*.flac)
Тип рипа: tracks
Разрядность: 24/96
Количество каналов: 2.0

Источник (релизер): e-onkyo

Лог проверки качества
foobar2000 1.4.3 / Dynamic Range Meter 1.1.1
log date: 2020-07-31 11:52:06

--------------------------------------------------------------------------------
Analyzed: Pat Metheny / Offramp
--------------------------------------------------------------------------------

DR         Peak         RMS     Duration Track
--------------------------------------------------------------------------------
DR11      -1.67 dB   -15.83 dB      3:21 01-Barcarole
DR12      -1.55 dB   -16.92 dB      8:54 02-Are You Going With Me?
DR12      -4.66 dB   -20.76 dB      8:34 03-Au Lait
DR12      -0.79 dB   -16.79 dB      5:11 04-Eighteen
DR12      -2.15 dB   -16.82 dB      6:00 05-Offramp
DR13      -0.95 dB   -17.14 dB      6:49 06-James
DR12      -7.88 dB   -23.96 dB      3:53 07-The Bat Pt.2
--------------------------------------------------------------------------------

Number of tracks:  7
Official DR value: DR12

Samplerate:        96000 Hz
Channels:          2
Bits per sample:   24
Bitrate:           2863 kbps
Codec:             FLAC
================================================================================
Any questions - support@pro-jazz.com. Есть вопросы - support@pro-jazz.com
13:28
241
Нет комментариев. Ваш будет первым!