Поиск

2018 Hubert Lenoir - Darlene {Simone SMCD041}

2018 Hubert Lenoir - Darlene {Simone SMCD041}
Стили:
Страна-производитель диска (релиза):
Canada
Дата издания диска:
2018
Издатель (лейбл):
Номер по каталогу:
SMCD041
Носитель:
CD
Битрейт аудио:
lossless
Аудиокодек:
FLAC (*.flac)
Тип рипа:
tracks+.cue
Время звучания:
38:16
Наличие сканов:
  • нет
Релизёр (источник):
PeepingTomPayne

Состав:
 

01. Fille de personne I (1:08)
02. Fille de personne II (3:59)
03. Fille de personne III (2:59)
04. J.-C. (3:03)
05. Recommencer (3:32)
06. Wild and Free (3:11)
07. Ton hotel (2:26)
08. Darlene, darling (2:24)
09. Momo (5:27)
10. Cent-treizieme rue (2:59)
11. Si on s'y mettait (4:56)
12. Noemie (2:12)

Лог создания рипа
Exact Audio Copy V1.1 from 23. June 2015

EAC extraction logfile from 16. February 2018, 18:00

Hubert Lenoir / Darlène

Used drive  : Lenovo  Slim_USB_Burner   Adapter: 1  ID: 1

Read mode               : Secure
Utilize accurate stream : Yes
Defeat audio cache      : Yes
Make use of C2 pointers : No

Read offset correction                      : 6
Overread into Lead-In and Lead-Out          : No
Fill up missing offset samples with silence : Yes
Delete leading and trailing silent blocks   : No
Null samples used in CRC calculations       : Yes
Used interface                              : Native Win32 interface for Win NT & 2000
Gap handling                                : Appended to previous track

Used output format              : User Defined Encoder
Selected bitrate                : 896 kBit/s
Quality                         : High
Add ID3 tag                     : No
Command line compressor         : C:\Program Files (x86)\Exact Audio Copy\Flac\flac.exe
Additional command line options : -8 -V -T "ARTIST=%artist%" -T "TITLE=%title%" -T "ALBUM=%albumtitle%" -T "DATE=%year%" -T "TRACKNUMBER=%tracknr%" -T "GENRE=%genre%" -T "PERFORMER=%albuminterpret%" -T "COMPOSER=%composer%" %haslyrics%--tag-from-file=LYRICS="%lyricsfile%"%haslyrics% -T "ALBUMARTIST=%albumartist%" -T "DISCNUMBER=%cdnumber%" -T "TOTALDISCS=%totalcds%" -T "TOTALTRACKS=%numtracks%" -T "COMMENT=%comment%" %source% -o %dest%

TOC of the extracted CD

     Track |   Start  |  Length  | Start sector | End sector
    ---------------------------------------------------------
        1  |  0:00.00 |  1:08.29 |         0    |     5128
        2  |  1:08.29 |  3:58.48 |      5129    |    23026
        3  |  5:07.02 |  2:58.47 |     23027    |    36423
        4  |  8:05.49 |  3:03.25 |     36424    |    50173
        5  | 11:08.74 |  3:31.61 |     50174    |    66059
        6  | 14:40.60 |  3:11.34 |     66060    |    80418
        7  | 17:52.19 |  2:25.70 |     80419    |    91363
        8  | 20:18.14 |  2:24.36 |     91364    |   102199
        9  | 22:42.50 |  5:26.65 |    102200    |   126714
       10  | 28:09.40 |  2:58.49 |    126715    |   140113
       11  | 31:08.14 |  4:56.27 |    140114    |   162340
       12  | 36:04.41 |  2:12.08 |    162341    |   172248

Track  1

     Filename C:\EAC Rips\Hubert Lenoir - Darlène (2018) [FLAC]\01 - Fille de personne I.wav

     Pre-gap length  0:00:02.00

     Peak level 74.7 %
     Extraction speed 0.6 X
     Track quality 99.8 %
     Test CRC 9A2CA6D9
     Copy CRC 9A2CA6D9
     Track not present in AccurateRip database
     Copy OK

Track  2

     Filename C:\EAC Rips\Hubert Lenoir - Darlène (2018) [FLAC]\02 - Fille de personne II.wav

     Peak level 98.6 %
     Extraction speed 1.1 X
     Track quality 100.0 %
     Test CRC 881E7EBE
     Copy CRC 881E7EBE
     Track not present in AccurateRip database
     Copy OK

Track  3

     Filename C:\EAC Rips\Hubert Lenoir - Darlène (2018) [FLAC]\03 - Fille de personne III.wav

     Peak level 98.6 %
     Extraction speed 1.0 X
     Track quality 99.9 %
     Test CRC 3B10CABC
     Copy CRC 3B10CABC
     Track not present in AccurateRip database
     Copy OK

Track  4

     Filename C:\EAC Rips\Hubert Lenoir - Darlène (2018) [FLAC]\04 - J.-C..wav

     Peak level 98.6 %
     Extraction speed 1.3 X
     Track quality 100.0 %
     Test CRC A85DE2A3
     Copy CRC A85DE2A3
     Track not present in AccurateRip database
     Copy OK

Track  5

     Filename C:\EAC Rips\Hubert Lenoir - Darlène (2018) [FLAC]\05 - Recommencer.wav

     Peak level 98.6 %
     Extraction speed 1.2 X
     Track quality 99.9 %
     Test CRC E6AAC649
     Copy CRC E6AAC649
     Track not present in AccurateRip database
     Copy OK

Track  6

     Filename C:\EAC Rips\Hubert Lenoir - Darlène (2018) [FLAC]\06 - Wild and Free.wav

     Peak level 98.6 %
     Extraction speed 1.4 X
     Track quality 100.0 %
     Test CRC 0B563DE9
     Copy CRC 0B563DE9
     Track not present in AccurateRip database
     Copy OK

Track  7

     Filename C:\EAC Rips\Hubert Lenoir - Darlène (2018) [FLAC]\07 - Ton hôtel.wav

     Peak level 98.6 %
     Extraction speed 1.4 X
     Track quality 100.0 %
     Test CRC 4ECC96C2
     Copy CRC 4ECC96C2
     Track not present in AccurateRip database
     Copy OK

Track  8

     Filename C:\EAC Rips\Hubert Lenoir - Darlène (2018) [FLAC]\08 - Darlène, darling.wav

     Peak level 98.6 %
     Extraction speed 1.5 X
     Track quality 100.0 %
     Test CRC D757843A
     Copy CRC D757843A
     Track not present in AccurateRip database
     Copy OK

Track  9

     Filename C:\EAC Rips\Hubert Lenoir - Darlène (2018) [FLAC]\09 - Momo.wav

     Peak level 98.6 %
     Extraction speed 1.7 X
     Track quality 100.0 %
     Test CRC 20972893
     Copy CRC 20972893
     Track not present in AccurateRip database
     Copy OK

Track 10

     Filename C:\EAC Rips\Hubert Lenoir - Darlène (2018) [FLAC]\10 - Cent-treizième rue.wav

     Peak level 98.6 %
     Extraction speed 1.7 X
     Track quality 100.0 %
     Test CRC 2DBB5A17
     Copy CRC 2DBB5A17
     Track not present in AccurateRip database
     Copy OK

Track 11

     Filename C:\EAC Rips\Hubert Lenoir - Darlène (2018) [FLAC]\11 - Si on s'y mettait.wav

     Peak level 98.6 %
     Extraction speed 1.9 X
     Track quality 100.0 %
     Test CRC 0396C66F
     Copy CRC 0396C66F
     Track not present in AccurateRip database
     Copy OK

Track 12

     Filename C:\EAC Rips\Hubert Lenoir - Darlène (2018) [FLAC]\12 - Noémie.wav

     Peak level 93.2 %
     Extraction speed 1.7 X
     Track quality 100.0 %
     Test CRC 867FC7BC
     Copy CRC 867FC7BC
     Track not present in AccurateRip database
     Copy OK

None of the tracks are present in the AccurateRip database

No errors occurred

End of status report

---- CUETools DB Plugin V2.1.6

[CTDB TOCID: Nq3pPNOe.Z7nvySRFNgWMob6Fzs-] disk not present in database
Submit result: Nq3pPNOe.Z7nvySRFNgWMob6Fzs- has been uploaded

==== Log checksum CD3902A252F267076BA8DC21A2E1F326EABE6CA7DBFC12A53F794980EF2254E2 ====
Содержание индексной карты (.CUE)
REM GENRE Pop
REM DATE 2018
REM DISCID 9608F80C
REM COMMENT "ExactAudioCopy v1.1"
PERFORMER "Hubert Lenoir"
TITLE "Darlene"
FILE "01 - Fille de personne I.wav" WAVE
  TRACK 01 AUDIO
    TITLE "Fille de personne I"
    PERFORMER "Hubert Lenoir"
    ISRC CA60L1760001
    INDEX 01 00:00:00
FILE "02 - Fille de personne II.wav" WAVE
  TRACK 02 AUDIO
    TITLE "Fille de personne II"
    PERFORMER "Hubert Lenoir"
    ISRC CA60L1760002
    INDEX 01 00:00:00
FILE "03 - Fille de personne III.wav" WAVE
  TRACK 03 AUDIO
    TITLE "Fille de personne III"
    PERFORMER "Hubert Lenoir"
    ISRC CA60L1760003
    INDEX 01 00:00:00
FILE "04 - J.-C..wav" WAVE
  TRACK 04 AUDIO
    TITLE "J.-C."
    PERFORMER "Hubert Lenoir"
    ISRC CA60L1760004
    INDEX 01 00:00:00
FILE "05 - Recommencer.wav" WAVE
  TRACK 05 AUDIO
    TITLE "Recommencer"
    PERFORMER "Hubert Lenoir"
    ISRC CA60L1760005
    INDEX 01 00:00:00
FILE "06 - Wild and Free.wav" WAVE
  TRACK 06 AUDIO
    TITLE "Wild and Free"
    PERFORMER "Hubert Lenoir"
    ISRC CA60L1760006
    INDEX 01 00:00:00
FILE "07 - Ton hotel.wav" WAVE
  TRACK 07 AUDIO
    TITLE "Ton hotel"
    PERFORMER "Hubert Lenoir"
    ISRC CA60L1760007
    INDEX 01 00:00:00
FILE "08 - Darlene, darling.wav" WAVE
  TRACK 08 AUDIO
    TITLE "Darlene, darling"
    PERFORMER "Hubert Lenoir"
    ISRC CA60L1760008
    INDEX 01 00:00:00
FILE "09 - Momo.wav" WAVE
  TRACK 09 AUDIO
    TITLE "Momo"
    PERFORMER "Hubert Lenoir"
    ISRC CA60L1760009
    INDEX 01 00:00:00
FILE "10 - Cent-treizieme rue.wav" WAVE
  TRACK 10 AUDIO
    TITLE "Cent-treizieme rue"
    PERFORMER "Hubert Lenoir"
    ISRC CA60L1760010
    INDEX 01 00:00:00
FILE "11 - Si on s'y mettait.wav" WAVE
  TRACK 11 AUDIO
    TITLE "Si on s'y mettait"
    PERFORMER "Hubert Lenoir"
    ISRC CA60L1760011
    INDEX 01 00:00:00
FILE "12 - Noemie.wav" WAVE
  TRACK 12 AUDIO
    TITLE "Noemie"
    PERFORMER "Hubert Lenoir"
    ISRC CA60L1760012
    INDEX 01 00:00:00
Скачивание доступно после регистрации!!
Приватный:
Нет (DHT включён)
Размер:
240.56 Мб (252,249,482 байт) » файлов: 18
Участники:
2 раздают, 0 качают (2 участников всего)
Внешние участники:
8 раздают, 2 качают (10 участников всего) [ Обновить ]
18:29
169
RSS
Нет комментариев. Ваш будет первым!