Поиск

2017 Norbert Stein Pata Messengers - We Are {Pata Music Pata 24}

2017 Norbert Stein Pata Messengers - We Are {Pata Music Pata 24}
Стили:
Страна-производитель диска (релиза):
Germany
Дата издания диска:
2017
Издатель (лейбл):
Номер по каталогу:
Pata 24
Носитель:
CD
Битрейт аудио:
lossless
Аудиокодек:
FLAC (*.flac)
Тип рипа:
tracks+.cue
Время звучания:
46:48
Наличие сканов:
  • нет
Релизёр (источник):
Nostalgiastic
Лог создания рипа
Exact Audio Copy V1.3 from 2. September 2016

EAC extraction logfile from 16. February 2018, 12:59

Norbert Stein PATA MESSENGERS / We Are

Used drive  : ASUS    DRW-24B1ST   i   Adapter: 1  ID: 0

Read mode               : Secure
Utilize accurate stream : Yes
Defeat audio cache      : Yes
Make use of C2 pointers : No

Read offset correction                      : 6
Overread into Lead-In and Lead-Out          : No
Fill up missing offset samples with silence : Yes
Delete leading and trailing silent blocks   : No
Null samples used in CRC calculations       : Yes
Used interface                              : Native Win32 interface for Win NT & 2000
Gap handling                                : Appended to previous track

Used output format              : User Defined Encoder
Selected bitrate                : 1024 kBit/s
Quality                         : High
Add ID3 tag                     : No
Command line compressor         : C:\Program Files (x86)\Exact Audio Copy\Flac\flac.exe
Additional command line options : -8 -V -T "ARTIST=%artist%" -T "TITLE=%title%" -T "ALBUM=%albumtitle%" -T "DATE=%year%" -T "TRACKNUMBER=%tracknr%" -T "GENRE=%genre%" -T "PERFORMER=%albuminterpret%" -T "COMPOSER=%composer%" %haslyrics%--tag-from-file=LYRICS="%lyricsfile%"%haslyrics% -T "ALBUMARTIST=%albumartist%" -T "DISCNUMBER=%cdnumber%" -T "TOTALDISCS=%totalcds%" -T "TOTALTRACKS=%numtracks%" -T "COMMENT=%comment%" %source% -o %dest%

TOC of the extracted CD

     Track |   Start  |  Length  | Start sector | End sector
    ---------------------------------------------------------
        1  |  0:00.00 |  6:32.57 |         0    |    29456
        2  |  6:32.57 |  5:31.20 |     29457    |    54301
        3  | 12:04.02 |  5:36.28 |     54302    |    79529
        4  | 17:40.30 |  4:35.24 |     79530    |   100178
        5  | 22:15.54 |  7:30.05 |    100179    |   133933
        6  | 29:45.59 |  4:35.00 |    133934    |   154558
        7  | 34:20.59 |  3:51.28 |    154559    |   171911
        8  | 38:12.12 |  7:35.06 |    171912    |   206042
        9  | 45:47.18 |  1:01.67 |    206043    |   210684

Track  1

     Filename C:\EAC Rips\Norbert Stein PATA MESSENGERS - We Are (2017) - CD FLAC\01 - Perfume.wav

     Pre-gap length  0:00:02.00

     Peak level 98.8 %
     Extraction speed 5.3 X
     Track quality 99.9 %
     Test CRC 5001E62F
     Copy CRC 5001E62F
     Track not present in AccurateRip database
     Copy OK

Track  2

     Filename C:\EAC Rips\Norbert Stein PATA MESSENGERS - We Are (2017) - CD FLAC\02 - Gondwana & Pangea.wav

     Peak level 98.8 %
     Extraction speed 5.2 X
     Track quality 99.9 %
     Test CRC D0C43D65
     Copy CRC D0C43D65
     Track not present in AccurateRip database
     Copy OK

Track  3

     Filename C:\EAC Rips\Norbert Stein PATA MESSENGERS - We Are (2017) - CD FLAC\03 - Diatonic Upanishad.wav

     Peak level 98.8 %
     Extraction speed 7.4 X
     Track quality 100.0 %
     Test CRC 1E13C244
     Copy CRC 1E13C244
     Track not present in AccurateRip database
     Copy OK

Track  4

     Filename C:\EAC Rips\Norbert Stein PATA MESSENGERS - We Are (2017) - CD FLAC\04 - El Fado.wav

     Peak level 89.2 %
     Extraction speed 7.8 X
     Track quality 100.0 %
     Test CRC 4BC747E8
     Copy CRC 4BC747E8
     Track not present in AccurateRip database
     Copy OK

Track  5

     Filename C:\EAC Rips\Norbert Stein PATA MESSENGERS - We Are (2017) - CD FLAC\05 - What We Are.wav

     Peak level 98.8 %
     Extraction speed 8.9 X
     Track quality 100.0 %
     Test CRC 13F21C89
     Copy CRC 13F21C89
     Track not present in AccurateRip database
     Copy OK

Track  6

     Filename C:\EAC Rips\Norbert Stein PATA MESSENGERS - We Are (2017) - CD FLAC\06 - Polarity.wav

     Peak level 98.8 %
     Extraction speed 9.0 X
     Track quality 100.0 %
     Test CRC 3A42BF02
     Copy CRC 3A42BF02
     Track not present in AccurateRip database
     Copy OK

Track  7

     Filename C:\EAC Rips\Norbert Stein PATA MESSENGERS - We Are (2017) - CD FLAC\07 - Be Yond!.wav

     Peak level 98.8 %
     Extraction speed 7.6 X
     Track quality 99.9 %
     Test CRC 39EE27DF
     Copy CRC 39EE27DF
     Track not present in AccurateRip database
     Copy OK

Track  8

     Filename C:\EAC Rips\Norbert Stein PATA MESSENGERS - We Are (2017) - CD FLAC\08 - Mellstones.wav

     Peak level 98.8 %
     Extraction speed 10.3 X
     Track quality 100.0 %
     Test CRC 9A52499B
     Copy CRC 9A52499B
     Track not present in AccurateRip database
     Copy OK

Track  9

     Filename C:\EAC Rips\Norbert Stein PATA MESSENGERS - We Are (2017) - CD FLAC\09 - Friendship.wav

     Peak level 97.6 %
     Extraction speed 7.1 X
     Track quality 100.0 %
     Test CRC 6A7ADC32
     Copy CRC 6A7ADC32
     Track not present in AccurateRip database
     Copy OK

None of the tracks are present in the AccurateRip database

No errors occurred

End of status report

---- CUETools DB Plugin V2.1.6

[CTDB TOCID: hNoN2MLdyR5I_C0O45nASll5KKc-] disk not present in database
Submit result: hNoN2MLdyR5I_C0O45nASll5KKc- has been uploaded

==== Log checksum 840E0D0ABB3ECAE34AADF8110595193B378D32891F754BC9CA7CB65CEDD6781F ====
Содержание индексной карты (.CUE)
REM GENRE Jazz
REM DATE 2017
REM DISCID 800AF909
REM COMMENT "ExactAudioCopy v1.3"
PERFORMER "Norbert Stein Pata Messengers"
TITLE "We Are"
FILE "01 - Perfume.wav" WAVE
  TRACK 01 AUDIO
    TITLE "Perfume"
    PERFORMER "Norbert Stein Pata Messengers"
    INDEX 01 00:00:00
FILE "02 - Gondwana & Pangea.wav" WAVE
  TRACK 02 AUDIO
    TITLE "Gondwana & Pangea"
    PERFORMER "Norbert Stein Pata Messengers"
    INDEX 01 00:00:00
FILE "03 - Diatonic Upanishad.wav" WAVE
  TRACK 03 AUDIO
    TITLE "Diatonic Upanishad"
    PERFORMER "Norbert Stein Pata Messengers"
    INDEX 01 00:00:00
FILE "04 - El Fado.wav" WAVE
  TRACK 04 AUDIO
    TITLE "El Fado"
    PERFORMER "Norbert Stein Pata Messengers"
    INDEX 01 00:00:00
FILE "05 - What We Are.wav" WAVE
  TRACK 05 AUDIO
    TITLE "What We Are"
    PERFORMER "Norbert Stein Pata Messengers"
    INDEX 01 00:00:00
FILE "06 - Polarity.wav" WAVE
  TRACK 06 AUDIO
    TITLE "Polarity"
    PERFORMER "Norbert Stein Pata Messengers"
    INDEX 01 00:00:00
FILE "07 - Be Yond!.wav" WAVE
  TRACK 07 AUDIO
    TITLE "Be Yond!"
    PERFORMER "Norbert Stein Pata Messengers"
    INDEX 01 00:00:00
FILE "08 - Mellstones.wav" WAVE
  TRACK 08 AUDIO
    TITLE "Mellstones"
    PERFORMER "Norbert Stein Pata Messengers"
    INDEX 01 00:00:00
FILE "09 - Friendship.wav" WAVE
  TRACK 09 AUDIO
    TITLE "Friendship"
    PERFORMER "Norbert Stein Pata Messengers"
    INDEX 01 00:00:00
Приватный:
Нет (DHT включён)
Размер:
272.77 Мб (286,020,518 байт) » файлов: 14
Участники:
1 раздают, 0 качают (1 участников всего)
Внешние участники:
5 раздают, 2 качают (7 участников всего) [ Обновить ]
Скорость:
0/c 61.74 Кб/c
19:08
114
RSS
Нет комментариев. Ваш будет первым!