Поиск

2018 Harry Allen Quartet - French Lullaby {Venus} [DSD64 ISO]

2018 Harry Allen Quartet - French Lullaby {Venus} [DSD64 ISO]
Стили:
Дата записи диска:
30 октября - 31 октября 2017
Место записи:
MillFactory Studios, Copenhagen
Дата издания диска:
21 февраля 2018
Издатель (лейбл):
Номер по каталогу:
VHGD-272
Носитель:
SACD
Формат:
DSD
Тип рипа:
image
Контейнер:
ISO (*.iso)
Количество каналов:
2.0
Разрядность/ЧД:
64 (2,8 MHz/1 Bit)
Битрейт аудио:
lossless
Время звучания:
01:03:38
Наличие сканов:
только обложка

01. I Will Wait for You  06:36
02. La Mer  06:35
03. C'est Si Bon  05:14
04. The Summer Knows  05:47
05. Chateau En Suede  05:49
06. Autumn Leaves  05:15
07. C'est Magnifique  05:05
08. My Way  06:26
09. La Vie En Rose  03:28
10. I Love Paris  05:03
11. I Wish You Love  04:46
12. What Are You Doing the Rest of Your Life?  03:40

Состав:
  •     Bass – Hans Backenroth
  •     Drums – Kristian Leth
  •     Engineer – Boe Larsen
  •     Guitar – Jacob Fischer
  •     Producer, Mixed By, Mastered By – Tetsuo Hara
  •     Tenor Saxophone – Harry Allen (2)
Лог проверки качества
foobar2000 1.6.7 / Dynamic Range Meter 1.1.1
log date: 2021-11-22 18:50:53
--------------------------------------------------------------------------------
Analyzed: HARRY ALLEN QUARTET / French Lullaby
--------------------------------------------------------------------------------
DR         Peak         RMS     Duration Track
--------------------------------------------------------------------------------
DR6       -4.80 dB   -12.48 dB      6:36 01-I Will Wait For You
DR6       -4.82 dB   -12.21 dB      6:36 02-La Mer
DR6       -4.80 dB   -11.77 dB      5:13 03-C'est Si Bon
DR6       -4.89 dB   -13.60 dB      5:46 04-The Summer Knows
DR6       -4.78 dB   -12.05 dB      5:48 05-Chateau En Suede
DR6       -4.85 dB   -13.64 dB      5:15 06-Autumn Leaves
DR6       -4.75 dB   -12.02 dB      5:05 07-C'est Magnifique
DR6       -4.74 dB   -12.26 dB      6:26 08-My Way
DR7       -4.85 dB   -13.44 dB      3:26 09-La Vie En Rose
DR6       -4.74 dB   -12.32 dB      5:03 10-I Love Paris
DR7       -5.04 dB   -15.10 dB      4:45 11-I Wish You Love
DR9       -4.88 dB   -16.52 dB      3:41 12-What Are You Doing The Rest Of Your Life?
--------------------------------------------------------------------------------
Number of tracks:  12
Official DR value: DR6
Samplerate:        2822400 Hz / PCM Samplerate: 88200 Hz
Channels:          2
Bits per sample:   1
Bitrate:           5645 kbps
Codec:             DSD64
================================================================================
Приватный:
Нет (DHT включён)
Размер:
2.57 Гб (2,762,970,779 байт) » файлов: 4
Участники:
0 раздают, 0 качают (0 участников всего)
Внешние участники:
--- [ Обновить ]
10:17
420
Нет комментариев. Ваш будет первым!