Поиск

2018 Gabriela Diaz - A Case Of Joni {Acqua} [24-48]

2018 Gabriela Diaz - A Case Of Joni {Acqua} [24-48]
Стили:
Треклист:

Формат записи/Источник записи: [TR24][OF]
Наличие водяных знаков: Нет
Год издания/переиздания диска: 2018
Издатель (лейбл): Acqua Records
Продолжительность: 39:51
Наличие сканов в содержимом раздачи: Только обложка альбома
Контейнер: FLAC (*.flac)
Тип рипа: tracks
Разрядность: 24/48
Формат: PCM
Количество каналов: 2.0
Источник (релизер): Qobuz

Треклист:
01. The Dry Cleaner From Des Moines
02. Court And Spark
03. River
04. The Fiddle And The Drum
05. Blue Motel Room
06. Twisted
07. Carey
08. A Case Of You
09. Big Yellow Taxi
10. Both Sides Now
11. You Turn Me On, I’m A Radio

 
Лог проверки качества
foobar2000 1.3.17 / Dynamic Range Meter 1.1.1
log date: 2018-03-03 18:41:46
--------------------------------------------------------------------------------
Analyzed: Gabriela Díaz / A Case of Joni
--------------------------------------------------------------------------------
DR         Peak         RMS     Duration Track
--------------------------------------------------------------------------------
DR9       -0.50 dB   -12.48 dB      3:42 01-The Dry Cleaner from Des Moines
DR10      -0.50 dB   -12.85 dB      2:44 02-Court and Spark
DR7       -0.50 dB   -10.31 dB      5:52 03-River
DR10      -0.50 dB   -15.67 dB      2:50 04-The Fiddle and the Drum
DR8       -0.50 dB   -10.30 dB      5:11 05-Blue Motel Room
DR10      -0.50 dB   -12.81 dB      3:03 06-Twisted
DR8       -0.50 dB   -10.15 dB      2:45 07-Carey
DR7       -0.50 dB   -11.65 dB      4:22 08-A Case of You
DR9       -0.50 dB   -12.31 dB      2:22 09-Big Yellow Taxi
DR8       -0.50 dB   -12.32 dB      4:36 10-Both Sides Now
DR7       -0.50 dB   -10.93 dB      2:28 11-You Turn Me On, I'm a Radio
--------------------------------------------------------------------------------
Number of tracks:  11
Official DR value: DR9
Samplerate:        48000 Hz
Channels:          2
Bits per sample:   24
Bitrate:           1580 kbps
Codec:             FLAC
================================================================================

 

Приватный:
Нет (DHT включён)
Размер:
453.48 Мб (475,510,908 байт) » файлов: 13
Участники:
3 раздают, 0 качают (3 участников всего)
Внешние участники:
5 раздают, 1 качают (6 участников всего) [ Обновить ]
19:27
76
Нет комментариев. Ваш будет первым!