Поиск

2017 Chlorine Free - Free Speech {Seventy Three - Dunose} [24-44,1]

2017 Chlorine Free - Free Speech {Seventy Three - Dunose} [24-44,1]
Стили:

Формат записи/Источник записи: [TR24][OF]
Наличие водяных знаков: Нет
Год издания/переиздания диска: 2017
Издатель (лейбл): Seventy Three - Dunose Production
Продолжительность: 54:43
Контейнер: FLAC (*.flac)
Тип рипа: tracks
Разрядность: 24/44,1
Формат: PCM
Количество каналов: 2.0
Наличие сканов в содержимом раздачи: Только обложка альбома
Источник: qobuz.com

Треклист:
01. Opening (0:58)
02. Lifelines (4:37)
03. Gather Soul (3:53)
04. Dayz Speech (2:59)
05. Breaking News (0:55)
06. Clifford Day (3:01)
07. Too Many Mirrors (2:39)
08. Rêves perdus (3:20)
09. Get Up (3:54)
10. Let's Walk (2:58)
11. Bloody Headz (1:02)
12. Chagrin (5:51)
13. Avril (2:13)
14. We Don't Give A Fuck (4:53)
15. Café cannelle (3:20)
16. Elsa (3:57)
17. J.H (4:14)

 
Лог проверки качества
foobar2000 1.3.9 / Dynamic Range Meter 1.1.1
log date: 2018-05-14 18:23:48
--------------------------------------------------------------------------------
Analyzed: Chlorine Free / Free Speech
--------------------------------------------------------------------------------
DR         Peak         RMS     Duration Track
--------------------------------------------------------------------------------
DR12      -0.51 dB   -17.51 dB      0:58 01-Opening
DR10      -0.01 dB   -12.24 dB      4:37 02-Lifelines
DR10      -0.04 dB   -11.54 dB      3:53 03-Gather Soul
DR10      -0.03 dB   -10.98 dB      2:59 04-Dayz Speech
DR10      -1.01 dB   -13.35 dB      0:55 05-Breaking News
DR8        0.00 dB   -10.51 dB      3:01 06-Clifford Day
DR9       -0.01 dB   -11.34 dB      2:39 07-Too Many Mirrors
DR9       -0.02 dB   -11.79 dB      3:20 08-Rêves perdus
DR11       0.00 dB   -12.46 dB      3:54 09-Get Up
DR12      -0.02 dB   -13.84 dB      2:58 10-Let's Walk
DR14      -0.06 dB   -18.95 dB      1:02 11-Bloody Headz
DR11      -0.02 dB   -13.65 dB      5:51 12-Chagrin
DR14      -0.02 dB   -16.88 dB      2:13 13-Avril
DR10      -0.01 dB   -12.08 dB      4:53 14-We Don't Give A Fuck
DR12       0.00 dB   -13.86 dB      3:20 15-Café cannelle
DR10      -1.02 dB   -14.11 dB      3:57 16-Elsa
DR9       -2.02 dB   -12.39 dB      4:14 17-J.H
--------------------------------------------------------------------------------
Number of tracks:  17
Official DR value: DR11
Samplerate:        44100 Hz
Channels:          2
Bits per sample:   24
Bitrate:           1509 kbps
Codec:             FLAC
================================================================================

 

Скачивание доступно после регистрации!!
Приватный:
Нет (DHT включён)
Размер:
546.66 Мб (573,213,619 байт) » файлов: 20
Участники:
3 раздают, 0 качают (3 участников всего)
Внешние участники:
--- [ Обновить ]
20:36
47
RSS
Нет комментариев. Ваш будет первым!