Поиск

2018 Fidel Fourneyron - Animal {ONJ} [24-44,1]

2018 Fidel Fourneyron - Animal {ONJ} [24-44,1]
Стили:

Состав:
  • Fidel Fourneyron - trombone, composition
  • Joachim Florent - contrebasse
  • Sylvain Darrifourcq - batterie

Формат записи/Источник записи: [TR24][OF]
Наличие водяных знаков: Нет
Год издания/переиздания диска: 2018
Издатель (лейбл): ONJ Records
Продолжительность: 38:30
Наличие сканов в содержимом раздачи: Только обложка альбома
Контейнер: FLAC (*.flac)
Тип рипа: tracks
Разрядность: 24/44,1
Формат: PCM
Количество каналов: 2.0
Источник: qobuz.com

Треклист:
01. Singe (3:40)
02. Chat (4:28)
03. Fourmi (3:59)
04. Baleine (5:10)
05. Bison (6:44)
06. Coq (3:56)
07. Souris (5:03)
08. Loup (5:29)

 
Лог проверки качества
foobar2000 1.3.9 / Dynamic Range Meter 1.1.1
log date: 2018-05-30 13:59:08
--------------------------------------------------------------------------------
Analyzed: Fidel Fourneyron / Animal
--------------------------------------------------------------------------------
DR         Peak         RMS     Duration Track
--------------------------------------------------------------------------------
DR10      -0.51 dB   -13.80 dB      3:40 01-Singe
DR11      -0.51 dB   -13.59 dB      4:28 02-Chat
DR10      -0.51 dB   -14.71 dB      3:59 03-Fourmi
DR12      -0.51 dB   -15.09 dB      5:10 04-Baleine
DR10      -0.51 dB   -15.43 dB      6:44 05-Bison
DR8       -0.51 dB   -11.58 dB      3:56 06-Coq
DR10      -0.51 dB   -13.53 dB      5:03 07-Souris
DR10      -0.51 dB   -14.51 dB      5:29 08-Loup
--------------------------------------------------------------------------------
Number of tracks:  8
Official DR value: DR10
Samplerate:        44100 Hz
Channels:          2
Bits per sample:   24
Bitrate:           1474 kbps
Codec:             FLAC
================================================================================

 

Скачивание доступно после регистрации!!
Приватный:
Нет (DHT включён)
Размер:
412.64 Мб (432,686,829 байт) » файлов: 11
Участники:
1 раздают, 0 качают (1 участников всего)
Внешние участники:
1 раздают, 0 качают (1 участников всего) [ Обновить ]
Скорость:
0/c 94.96 Кб/c
13:41
61
RSS
Нет комментариев. Ваш будет первым!