Поиск

2018 Fabrice Martinez Chut! - Rebirth Reverse {ONJ} [24-88,2]

2018 Fabrice Martinez Chut! - Rebirth Reverse {ONJ} [24-88,2]
Стили:

Состав:
  • Fabrice Martinez - tp, flgn
  • Fred Escoffier - p, key
  • Bruno Chevillon - ac-b, el-b
  • Eric Echampard - d

Формат записи/Источник записи: [TR24][OF]
Наличие водяных знаков: Нет
Год издания/переиздания диска: 2018
Издатель (лейбл): ONJ Records
Продолжительность: 71:44
Наличие сканов в содержимом раздачи: Буклет PDF
Контейнер: FLAC (*.flac)
Тип рипа: tracks
Разрядность: 24/88,2
Формат: PCM
Количество каналов: 2.0
Источник: qobuz.com

Треклист:
01. Rebirth Reverse (5:20)
02. P and T Reverse (5:21)
03. Prune Reverse (4:17)
04. Aux cendres Reverse (1:33)
05. Devant la colline (4:57)
06. Smity Reverse (5:17)
07. Nino Reverse (3:29)
08. Roots Reverse (2:41)
09. Rebirth (3:01)
10. P and T (6:51)
11. Prune (4:09)
12. Aux cendres etc (5:16)
13. Derrière la colline (6:58)
14. Smity (5:37)
15. Nino et le retour des nuages (3:20)
16. Roots (3:40)

 
Лог проверки качества
foobar2000 1.3.9 / Dynamic Range Meter 1.1.1
log date: 2018-05-30 15:15:34
--------------------------------------------------------------------------------
Analyzed: Fabrice Martinez Chut! / Rebirth Reverse
--------------------------------------------------------------------------------
DR         Peak         RMS     Duration Track
--------------------------------------------------------------------------------
DR12      -0.16 dB   -16.16 dB      5:20 01-Rebirth Reverse
DR12      -0.16 dB   -16.62 dB      5:21 02-P and T Reverse
DR13      -0.16 dB   -18.82 dB      4:17 03-Prune Reverse
DR13      -0.82 dB   -17.31 dB      1:33 04-Aux cendres Reverse
DR14      -0.16 dB   -17.49 dB      4:57 05-Devant la colline
DR13      -0.16 dB   -17.94 dB      5:17 06-Smity Reverse
DR11      -0.16 dB   -14.66 dB      3:29 07-Nino Reverse
DR12      -0.16 dB   -13.57 dB      2:41 08-Roots Reverse
DR8       -0.78 dB   -10.13 dB      3:01 09-Rebirth
DR8       -1.26 dB   -11.69 dB      6:51 10-P and T
DR6       -1.06 dB    -9.52 dB      4:09 11-Prune
DR9       -1.32 dB   -11.72 dB      5:16 12-Aux cendres etc
DR7       -0.89 dB   -11.10 dB      6:58 13-Derrière la colline
DR9       -1.31 dB   -12.55 dB      5:37 14-Smity
DR8       -1.29 dB   -11.04 dB      3:20 15-Nino et le retour des nuages
DR8       -1.26 dB   -10.92 dB      3:40 16-Roots
--------------------------------------------------------------------------------
Number of tracks:  16
Official DR value: DR10
Samplerate:        88200 Hz
Channels:          2
Bits per sample:   24
Bitrate:           2894 kbps
Codec:             FLAC
================================================================================

 

Скачивание доступно после регистрации!!
Приватный:
Нет (DHT включён)
Размер:
1.34 Гб (1,437,603,782 байт) » файлов: 20
Участники:
0 раздают, 0 качают (0 участников всего)
Внешние участники:
--- [ Обновить ]
Скорость:
0/c 29.45 Кб/c
14:03
59
RSS
Нет комментариев. Ваш будет первым!