Поиск

2018 Case Kamarainen - Waiting {Eclipse} [WEB]

2018 Case Kamarainen - Waiting {Eclipse} [WEB]
Дата издания диска:
9 ноября 2018
Треклист:

1. Up & Down. 6:06
2. Spectator. 6:42
3. Green Wave. 4:41
4. Bergen? 6:03
5. Beautiful Wind. 5:52
6. Waiting. 5:19
7. Confused by Expectation. 5:07
8. Afro Nite. 4:41

Жанр: Post-Bop / Contemporary Jazz
Носитель: WEB
Год издания: 2018
Издатель (лейбл): Web Release [Eclipse Music]
Страна исполнителя (группы): Finland
Аудиокодек: FLAC (*.flac)
Тип рипа: tracks
Битрейт аудио: lossless
Продолжительность: 44:36 min
Источник: bandcamp.com
Наличие сканов в содержимом раздачи: no

 
DRM.log
foobar2000 1.3.8 / Dynamic Range Meter 1.1.1
log date: 2019-01-18 23:10:48
--------------------------------------------------------------------------------
Analyzed: Case Kämäräinen / Waiting
--------------------------------------------------------------------------------
DR         Peak         RMS     Duration Track
--------------------------------------------------------------------------------
DR9       -0.85 dB   -13.39 dB      6:07 01-Up & Down
DR11      -0.85 dB   -15.39 dB      6:43 02-Spectator
DR11      -0.84 dB   -13.38 dB      4:41 03-Green Wave
DR9       -0.76 dB   -13.27 dB      6:03 04-Bergen?
DR13      -0.85 dB   -17.59 dB      5:52 05-Beautiful Mind
DR11      -0.85 dB   -14.23 dB      5:20 06-Waiting
DR9       -0.85 dB   -13.72 dB      5:08 07-Confused By Expectation
DR9       -0.85 dB   -11.94 dB      4:42 08-Afro Nite
--------------------------------------------------------------------------------
Number of tracks:  8
Official DR value: DR10
Samplerate:        44100 Hz
Channels:          2
Bits per sample:   16
Bitrate:           857 kbps
Codec:             FLAC
================================================================================
Лог проверки качества
-----------------------

DON'T MODIFY THIS FILE

-----------------------

PERFORMER: auCDtect Task Manager, ver. 1.6.0 RC1 build 1.6.0.1
Copyright (c) 2008-2010 y-soft. All rights reserved
http://y-soft.org

ANALYZER: auCDtect: CD records authenticity detector, version 0.8.2
Copyright (c) 2004 Oleg Berngardt. All rights reserved.
Copyright (c) 2004 Alexander Djourik. All rights reserved.

FILE: 01. Up & Down.flac
  Size: 34834404 Hash: 2101511CE731FD30CFF9E881A207FEFB Accuracy: -m0
  Conclusion: CDDA 100%
  Signature: 445665852B73436F64368ECE426C647F850771FE
FILE: 02. Spectator.flac
  Size: 36343243 Hash: 5CFCEE486D321975AEF556B7BBDF29AF Accuracy: -m0
  Conclusion: CDDA 100%
  Signature: C7B02D53F035A1A4DDFBFAD31FAB31F51DF626FB
FILE: 03. Green Wave.flac
  Size: 29630231 Hash: 9220987D8C2CF004EBE800A008321521 Accuracy: -m0
  Conclusion: CDDA 100%
  Signature: A4EED6AA283476C8B57DF64A1FE2900909274166
FILE: 04. Bergen.flac
  Size: 37197231 Hash: E279676C7268580EC2C963121DE5352F Accuracy: -m0
  Conclusion: CDDA 100%
  Signature: 9C633228930538753979F89630079A3A9AEEF092
FILE: 05. Beautiful Mind.flac
  Size: 29383503 Hash: B2D2C15AA5C2127B7531E75763749690 Accuracy: -m0
  Conclusion: CDDA 100%
  Signature: B3F31331916330D6677E582047C6FE5825904C81
FILE: 06. Waiting.flac
  Size: 30686753 Hash: CBB961D60C36E7C93B62D0D663056C0B Accuracy: -m0
  Conclusion: CDDA 100%
  Signature: D738417F511B56FF537A99DC92E882CEFF91DCEE
FILE: 07. Confused By Expectation.flac
  Size: 29475541 Hash: 689F4663F07D1611B017F600E9E9C7A0 Accuracy: -m0
  Conclusion: CDDA 100%
  Signature: 6759C5AC8AF1E2DCA7D43E92B9791A3F0C8F0F11
FILE: 08. Afro Nite.flac
  Size: 30347734 Hash: 28DD44B249A957F2CF178EDE96A822A9 Accuracy: -m0
  Conclusion: CDDA 100%
  Signature: CFAB62EBCF50F52C048819ADD4792DB14F825E2A
По всем вопросам пишите личное сообщение пользователю M0p94ok.
07:33
474
Нет комментариев. Ваш будет первым!