Поиск

1989 Anthony Davis, James Newton & Abdul Wadud - Trio, vol.2 {Gramavision R2 79441} [CD]

1989 Anthony Davis, James Newton & Abdul Wadud - Trio, vol.2 {Gramavision R2 79441} [CD]

01. Who's Life (10:06)
02. Thursday's Child (8:56)
03. Eclipse (6:58)
04. Kiano (6:43)
05. Invisible Island Part 1 (5:15)
06. Invisible Island Part 2 (3:50)
07. Invisible Island Part 3 (5:06)
08. Simultaneity (3:58)
09. Flat Out (11:36)

Recording Location

  • A & R Recording Studio, New York, NY
  • A&R Studios, New York, NY

Носитель: CD
Страна-производитель диска (релиза): Switzerland
Год издания: 1990 (1989)
Издатель (лейбл): Gramavision
Номер по каталогу: R2 79441
Страна исполнителя (группы): US
Аудиокодек: FLAC (*.flac)
Тип рипа: tracks+.cue
Битрейт аудио: lossless
Продолжительность: 01:02:44
Источник: Poupsicot88
Наличие сканов в содержимом раздачи: нет

Состав:
  • Jim Anderson    Editing, Engineer
  • Tim Casey    Editing, Editing Assistant
  • Anthony Davis    Composer, Piano
  • James Newton    Composer, Flute
  • Al Pryor    Liner Notes
  • Jon Rose    Producer
  • Jonathan F.P. Rose    Producer
  • Abdul Wadud    Cello, Composer, Strings
Лог создания рипа
Exact Audio Copy V1.3 from 2. September 2016

EAC extraction logfile from 17. January 2019, 20:56

Anthony Davis, James Newton & Abdul Wadud / Trio²

Used drive  : PLEXTOR DVDR   PX-891SA   Adapter: 1  ID: 0

Read mode               : Secure
Utilize accurate stream : Yes
Defeat audio cache      : Yes
Make use of C2 pointers : No

Read offset correction                      : 6
Overread into Lead-In and Lead-Out          : No
Fill up missing offset samples with silence : Yes
Delete leading and trailing silent blocks   : No
Null samples used in CRC calculations       : Yes
Used interface                              : Native Win32 interface for Win NT & 2000
Gap handling                                : Appended to previous track

Used output format              : User Defined Encoder
Selected bitrate                : 1024 kBit/s
Quality                         : High
Add ID3 tag                     : No
Command line compressor         : C:\Program Files (x86)\Exact Audio Copy\FLAC\FLAC.EXE
Additional command line options : -8 -V -T "ARTIST=%artist%" -T "TITLE=%title%" -T "ALBUM=%albumtitle%" -T "DATE=%year%" -T "TRACKNUMBER=%tracknr%" -T "GENRE=%genre%" -T "COMMENT=%comment%" -T "BAND=%albuminterpret%" -T "ALBUMARTIST=%albuminterpret%" -T "COMPOSER=%composer%" %haslyrics%--tag-from-file=LYRICS="%lyricsfile%"%haslyrics% -T "DISCNUMBER=%cdnumber%" -T "TOTALDISCS=%totalcds%" -T "TOTALTRACKS=%numtracks%" %hascover%--picture="%coverfile%"%hascover% %source% -o %dest%

TOC of the extracted CD

     Track |   Start  |  Length  | Start sector | End sector
    ---------------------------------------------------------
        1  |  0:00.33 | 10:10.12 |        33    |    45794
        2  | 10:10.45 |  8:56.38 |     45795    |    86032
        3  | 19:07.08 |  6:58.00 |     86033    |   117382
        4  | 26:05.08 |  6:46.62 |    117383    |   147894
        5  | 32:51.70 |  5:15.33 |    147895    |   171552
        6  | 38:07.28 |  3:48.35 |    171553    |   188687
        7  | 41:55.63 |  5:13.32 |    188688    |   212194
        8  | 47:09.20 |  3:58.13 |    212195    |   230057
        9  | 51:07.33 | 11:37.50 |    230058    |   282382

Track  1

     Filename H:\Torrents\Davis, Anthony\Anthony Davis, James Newton & Abdul Wadud (1989) [R2 79441] Trio²\01. Who's Life.wav

     Pre-gap length  0:00:02.33

     Peak level 70.5 %
     Extraction speed 6.7 X
     Track quality 100.0 %
     Test CRC F8B3CB0F
     Copy CRC F8B3CB0F
     Accurately ripped (confidence 1)  [21AC1AED]  (AR v2)
     Copy OK

Track  2

     Filename H:\Torrents\Davis, Anthony\Anthony Davis, James Newton & Abdul Wadud (1989) [R2 79441] Trio²\02. Thursday's Child.wav

     Pre-gap length  0:00:02.37

     Peak level 68.0 %
     Extraction speed 7.3 X
     Track quality 99.9 %
     Test CRC 7EEEAF45
     Copy CRC 7EEEAF45
     Accurately ripped (confidence 1)  [36B75E2F]  (AR v2)
     Copy OK

Track  3

     Filename H:\Torrents\Davis, Anthony\Anthony Davis, James Newton & Abdul Wadud (1989) [R2 79441] Trio²\03. Eclipse.wav

     Pre-gap length  0:00:03.25

     Peak level 97.6 %
     Extraction speed 7.0 X
     Track quality 99.9 %
     Test CRC 6696C8D8
     Copy CRC 6696C8D8
     Accurately ripped (confidence 1)  [2A3DEEF6]  (AR v2)
     Copy OK

Track  4

     Filename H:\Torrents\Davis, Anthony\Anthony Davis, James Newton & Abdul Wadud (1989) [R2 79441] Trio²\04. Kiano.wav

     Pre-gap length  0:00:02.50

     Peak level 100.0 %
     Extraction speed 9.5 X
     Track quality 100.0 %
     Test CRC B4A0DFE9
     Copy CRC B4A0DFE9
     Accurately ripped (confidence 1)  [B1CCCD6C]  (AR v2)
     Copy OK

Track  5

     Filename H:\Torrents\Davis, Anthony\Anthony Davis, James Newton & Abdul Wadud (1989) [R2 79441] Trio²\05. Invisible Island Part 1.wav

     Pre-gap length  0:00:05.00

     Peak level 48.6 %
     Extraction speed 9.8 X
     Track quality 100.0 %
     Test CRC FE4D2E8A
     Copy CRC FE4D2E8A
     Accurately ripped (confidence 1)  [51981703]  (AR v2)
     Copy OK

Track  6

     Filename H:\Torrents\Davis, Anthony\Anthony Davis, James Newton & Abdul Wadud (1989) [R2 79441] Trio²\06. Invisible Island Part 2.wav

     Peak level 82.9 %
     Extraction speed 9.8 X
     Track quality 100.0 %
     Test CRC C12CD204
     Copy CRC C12CD204
     Accurately ripped (confidence 1)  [988A6874]  (AR v2)
     Copy OK

Track  7

     Filename H:\Torrents\Davis, Anthony\Anthony Davis, James Newton & Abdul Wadud (1989) [R2 79441] Trio²\07. Invisible Island Part 3.wav

     Peak level 55.6 %
     Extraction speed 10.5 X
     Track quality 100.0 %
     Test CRC 6A8363AA
     Copy CRC 6A8363AA
     Accurately ripped (confidence 1)  [DF44F8CF]  (AR v2)
     Copy OK

Track  8

     Filename H:\Torrents\Davis, Anthony\Anthony Davis, James Newton & Abdul Wadud (1989) [R2 79441] Trio²\08. Simultaneity.wav

     Pre-gap length  0:00:03.25

     Peak level 91.6 %
     Extraction speed 10.6 X
     Track quality 100.0 %
     Test CRC 94363342
     Copy CRC 94363342
     Accurately ripped (confidence 1)  [1166A242]  (AR v2)
     Copy OK

Track  9

     Filename H:\Torrents\Davis, Anthony\Anthony Davis, James Newton & Abdul Wadud (1989) [R2 79441] Trio²\09. Flat Out.wav

     Pre-gap length  0:00:03.05

     Peak level 97.4 %
     Extraction speed 12.2 X
     Track quality 100.0 %
     Test CRC 850B9F34
     Copy CRC 850B9F34
     Accurately ripped (confidence 1)  [C03A5FA4]  (AR v2)
     Copy OK

All tracks accurately ripped

No errors occurred

End of status report

==== Log checksum F636CEA10F69ADC48B55009C02014B2C0B4BC0F91B7937510969DE14C8717C1C ====
Содержание индексной карты (.CUE)
REM GENRE Jazz
REM DATE 1990
REM DISCID 850EB509
REM COMMENT "ExactAudioCopy v1.3"
CATALOG 0000000000000
PERFORMER "Anthony Davis, James Newton & Abdul Wadud"
TITLE "Trio²"
REM COMPOSER ""
FILE "01. Who's Life.wav" WAVE
  TRACK 01 AUDIO
    TITLE "Who's Life?"
    PERFORMER "Anthony Davis, James Newton & Abdul Wadud"
    REM COMPOSER "Davis, Anthony"
    PREGAP 00:00:33
    INDEX 01 00:00:00
  TRACK 02 AUDIO
    TITLE "Thursday's Child"
    PERFORMER "Anthony Davis, James Newton & Abdul Wadud"
    REM COMPOSER "Hanna, Roland"
    INDEX 00 10:07:50
FILE "02. Thursday's Child.wav" WAVE
    INDEX 01 00:00:00
  TRACK 03 AUDIO
    TITLE "Eclipse"
    PERFORMER "Anthony Davis, James Newton & Abdul Wadud"
    REM COMPOSER "Mingus, Charles"
    INDEX 00 08:53:13
FILE "03. Eclipse.wav" WAVE
    INDEX 01 00:00:00
  TRACK 04 AUDIO
    TITLE "Kiano"
    PERFORMER "Anthony Davis, James Newton & Abdul Wadud"
    REM COMPOSER "Davis, Anthony"
    INDEX 00 06:55:25
FILE "04. Kiano.wav" WAVE
    INDEX 01 00:00:00
  TRACK 05 AUDIO
    TITLE "Invisible Island Part 1"
    PERFORMER "Anthony Davis, James Newton & Abdul Wadud"
    REM COMPOSER "Newton, James"
    INDEX 00 06:41:62
FILE "05. Invisible Island Part 1.wav" WAVE
    INDEX 01 00:00:00
FILE "06. Invisible Island Part 2.wav" WAVE
  TRACK 06 AUDIO
    TITLE "Invisible Island Part 2"
    PERFORMER "Anthony Davis, James Newton & Abdul Wadud"
    REM COMPOSER "Newton, James"
    INDEX 01 00:00:00
FILE "07. Invisible Island Part 3.wav" WAVE
  TRACK 07 AUDIO
    TITLE "Invisible Island Part 3"
    PERFORMER "Anthony Davis, James Newton & Abdul Wadud"
    REM COMPOSER "Newton, James"
    INDEX 01 00:00:00
  TRACK 08 AUDIO
    TITLE "Simultaneity"
    PERFORMER "Anthony Davis, James Newton & Abdul Wadud"
    REM COMPOSER "Davis, Anthony"
    INDEX 00 05:10:07
FILE "08. Simultaneity.wav" WAVE
    INDEX 01 00:00:00
  TRACK 09 AUDIO
    TITLE "Flat Out"
    PERFORMER "Anthony Davis, James Newton & Abdul Wadud"
    REM COMPOSER "Davis, Anthony; Newton, James; Wadud, Abdul"
    INDEX 00 03:55:08
FILE "09. Flat Out.wav" WAVE
    INDEX 01 00:00:00
08:35
704
Нет комментариев. Ваш будет первым!