Поиск

2018 Buster Williams - Audacity {Smoke Sessions} [24-96]

2018 Buster Williams - Audacity {Smoke Sessions} [24-96]
Стили:
Издатель (лейбл):
Треклист:

Формат записи/Источник записи: [TR24][OF]
Наличие водяных знаков: Нет
Год издания/переиздания диска: 2018
Продолжительность: 66:46
Наличие сканов в содержимом раздачи: Только обложка альбома
Источник: WRZmusic
Магазин: qobuz.com
Контейнер: FLAC (*.flac)
Тип рипа: tracks
Разрядность: 24/96
Формат: PCM
Количество каналов: 2.0

Треклист:
01. Where Giants Dwell (6:43)
02. Song Of The Outcasts (10:33)
03. Sisko (6:38)
04. Ariana Anai (4:56)
05. Lost On 4th Avenue (8:36)
06. Stumblin' (4:07)
07. Triumph (8:15)
08. Briana (10:12)
09. Audacity (6:47)

 
Лог проверки качества
foobar2000 1.3.9 / Dynamic Range Meter 1.1.1
log date: 2018-06-15 15:31:34
--------------------------------------------------------------------------------
Analyzed: Buster Williams / Audacity
--------------------------------------------------------------------------------
DR         Peak         RMS     Duration Track
--------------------------------------------------------------------------------
DR10      -1.00 dB   -12.11 dB      6:43 01-Where Giants Dwell
DR11      -1.02 dB   -15.42 dB     10:33 02-Song Of The Outcasts
DR10      -1.00 dB   -13.15 dB      6:38 03-Sisko
DR11      -1.08 dB   -14.37 dB      4:56 04-Ariana Anai
DR11      -1.02 dB   -13.66 dB      8:36 05-Lost On 4th Avenue
DR10      -1.14 dB   -12.81 dB      4:07 06-Stumblin'
DR9       -1.00 dB   -13.77 dB      8:15 07-Triumph
DR10      -1.00 dB   -14.10 dB     10:12 08-Briana
DR10      -1.00 dB   -12.87 dB      6:47 09-Audacity
--------------------------------------------------------------------------------
Number of tracks:  9
Official DR value: DR10
Samplerate:        96000 Hz
Channels:          2
Bits per sample:   24
Bitrate:           2783 kbps
Codec:             FLAC
================================================================================

 

Приватный:
Нет (DHT включён)
Размер:
1.27 Гб (1,363,220,878 байт) » файлов: 12
Участники:
4 раздают, 1 качают (5 участников всего)
Внешние участники:
3 раздают, 1 качают (4 участников всего) [ Обновить ]
Есть вопросы - пишите личное сообщение пользователю M0p94ok.
23:14
88
Нет комментариев. Ваш будет первым!