Поиск

1975 Buddy Tate - Body And Soul (2018) {2xHD, Storyville} [24-192]

1975 Buddy Tate - Body And Soul (2018) {2xHD, Storyville} [24-192]
Стили:
Издатель (лейбл):

01. Stompin' At The Savoy (7:12)
02. Body And Soul (Live) (8:54)
03. Buddy's Blues (7:45)
04. In A Mellow Tone (17:30)
05. I Surrender Dear (3:32)

Состав:
  • Buddy Tate - ts, vo on 3
  • Tete Montoliu - p
  • Bo Stief - b
  • Svend Eric Nørregaard - d
  • Finn Ziegler - vln on 2, 4

Recorded at La Fontaine, Copenhagen, September 23, 1975.

Лог проверки качества
foobar2000 1.3.9 / Dynamic Range Meter 1.1.1
log date: 2018-06-15 02:24:06
--------------------------------------------------------------------------------
Analyzed: Buddy Tate / Body And Soul
--------------------------------------------------------------------------------
DR         Peak         RMS     Duration Track
--------------------------------------------------------------------------------
DR12      -3.30 dB   -18.46 dB      7:12 01-Stompin' At The Savoy
DR11      -3.87 dB   -19.53 dB      8:54 02-Body And Soul
DR11      -2.08 dB   -16.94 dB      7:45 03-Buddy's Blues
DR11      -1.79 dB   -16.88 dB     17:30 04-In A Mellow Tone
DR11      -5.51 dB   -20.97 dB      3:32 05-I Surrender Dear
--------------------------------------------------------------------------------
Number of tracks:  5
Official DR value: DR11
Samplerate:        192000 Hz
Channels:          2
Bits per sample:   24
Bitrate:           4844 kbps
Codec:             FLAC
================================================================================
21:32
1017
Нет комментариев. Ваш будет первым!