Поиск

2018 Ben Zahler’s Songgoing - Quietly Cold {TCB} [24-96]

2018 Ben Zahler’s Songgoing - Quietly Cold {TCB} [24-96]
Треклист:

01. Off The Hook
02. Quietly Cold
03. So Much Nonsense (And Furthermore)
04. Lullaby For The Wild
05. Dancing Elf
06. I Like That Papermoon
07. Long Deep Sleep Song
08. Snow Dreaming
09. Andy’s Foodcorner
10. Strange Enough
11. More
12. Falling Gloves Are Always Blue
13. Monday Morning Move

Лог проверки качества
foobar2000 1.3.7 / Dynamic Range Meter 1.1.1
log date: 2018-11-06 13:21:41

--------------------------------------------------------------------------------
Analyzed: Ben Zahler’s Songgoing / Quietly Cold
--------------------------------------------------------------------------------

DR         Peak         RMS     Duration Track
--------------------------------------------------------------------------------
DR6        0.00 dB    -9.17 dB      4:14 01-Off the Hook
DR9        0.00 dB   -11.15 dB      3:27 02-Quietly Cold
DR7        0.00 dB    -8.96 dB      4:12 03-So Much Nonsense (and Furthermore)
DR7        0.00 dB    -8.56 dB      4:10 04-Lullaby for the Wild
DR7        0.00 dB    -9.42 dB      4:43 05-Dancing Elf
DR7        0.00 dB    -9.06 dB      3:46 06-I Like That Papermoon
DR8        0.00 dB   -10.06 dB      4:26 07-Long Deep Sleep Song
DR9        0.00 dB   -11.34 dB      3:27 08-Snow Dreaming
DR8        0.00 dB   -10.11 dB      4:40 09-Andy's Foodcorner
DR9        0.00 dB   -10.76 dB      1:30 10-Strange Enough
DR7        0.00 dB    -9.31 dB      2:58 11-More
DR8        0.00 dB   -10.41 dB      4:38 12-Falling Gloves Are Always Blue
DR9        0.00 dB   -10.24 dB      2:18 13-Monday Morning Move
--------------------------------------------------------------------------------

Number of tracks:  13
Official DR value: DR8

Samplerate:        96000 Hz
Channels:          2
Bits per sample:   24
Bitrate:           2713 kbps
Codec:             FLAC
================================================================================
Скриншот спектра частот
2018 Ben Zahler’s Songgoing - Quietly Cold {TCB} [24-96] 02018 Ben Zahler’s Songgoing - Quietly Cold {TCB} [24-96] 12018 Ben Zahler’s Songgoing - Quietly Cold {TCB} [24-96] 2
Приватный:
Нет (DHT включён)
Размер:
911.55 Мб (955,833,422 байт) » файлов: 15
Участники:
4 раздают, 0 качают (4 участников всего)
Внешние участники:
3 раздают, 1 качают (4 участников всего) [ Обновить ]
Никого нет на раздаче - пишите личное сообщение M0p94ok
No seeders - write personal message to M0p94ok
11:39
27
Нет комментариев. Ваш будет первым!