Поиск

2015 Manhattan Jazz Quintet - Still Crazy {King} [DSD128 1-5,6]

2015 Manhattan Jazz Quintet - Still Crazy {King} [DSD128 1-5,6]
Треклист:

01. Tell Her About It
02. Grampa
03. One Note Samba
04. It’s Only A Paper Moon
05. Theme From ‘Good King Bad’
06. Nica’s Dream
07. S’Wonderful
08. Still Crazy After All These Years

Arranged by David Matthews. Recorded & Mixed by Bryan Pugh.
Recorded on February 25, 2015 at Bunker Studio, New York.
Mastered by Hiroyuki Tsuji (King Sekiguchidai Studio).

Лог проверки качества
foobar2000 1.4 / Dynamic Range Meter 1.1.1
log date: 2018-11-07 05:15:15

--------------------------------------------------------------------------------
Analyzed: Manhattan Jazz Quintet / Still Crazy
--------------------------------------------------------------------------------

DR         Peak         RMS     Duration Track
--------------------------------------------------------------------------------
DR13      -5.95 dB   -20.56 dB      6:40 01-Tell Her About It
DR13      -5.91 dB   -20.54 dB      6:14 02-Grampa
DR12      -5.93 dB   -19.44 dB      5:26 03-One Note Samba
DR13      -6.00 dB   -21.91 dB      5:04 04-It's Only A Paper Moon
DR12      -5.94 dB   -20.16 dB      8:20 05-Theme From 'Good King Bad'
DR14      -5.99 dB   -21.72 dB      6:31 06-Nica's Dream
DR12      -5.98 dB   -20.22 dB      5:29 07-S'Wonderful
DR13      -5.93 dB   -20.78 dB      7:43 08-Still Crazy After All These Years
--------------------------------------------------------------------------------

Number of tracks:  8
Official DR value: DR13

Samplerate:        5644800 Hz / PCM Samplerate: 176400 Hz
Channels:          2
Bits per sample:   1
Bitrate:           11290 kbps
Codec:             DSD128
================================================================================
Скачивание доступно после регистрации!!
Приватный:
Нет (DHT включён)
Размер:
4.06 Гб (4,357,023,840 байт) » файлов: 10
Участники:
1 раздают, 1 качают (2 участников всего)
Внешние участники:
34 раздают, 11 качают (45 участников всего) [ Обновить ]
Скорость:
631.60 Кб/c 0/c
12:18
24
Нет комментариев. Ваш будет первым!