Поиск

2017 Yuko Mabuchi Trio - Yuko Mabuchi Trio {Yarlung} [DSD256]

2017 Yuko Mabuchi Trio - Yuko Mabuchi Trio {Yarlung} [DSD256]
Треклист:

01. What Is This Thing Called Love
02. Valse Noire
03. On Green Dolphin Street
04. Seriously
05. Medley: All The Things You Are, Take The “A” Train, Satin Doll
06. Japanese Medley: Hazy Moon, Cherry Blossom, Look At The Sky
07. Sona’s Song
08. St. Thomas

Доп. инфо:

Формат записи/Источник записи: [DSD][OF]
Наличие водяных знаков: Нет
Год издания/переиздания диска: 2017
Издатель (лейбл): Yarlung Records
Продолжительность: 59:09
Наличие сканов в содержимом раздачи: Буклет PDF
Источник (релизер): nativeDSDmusic

Контейнер: DSF (*.dsf)
Тип рипа: tracks
Разрядность: 256(11,28 MHz/1 Bit)
Формат: DSD
Количество каналов: 2.0

Лог проверки качества
foobar2000 1.3.15 / Dynamic Range Meter 1.1.1
log date: 2019-10-09 15:20:46

--------------------------------------------------------------------------------
Analyzed: Yuko Mabuchi Trio / Yuko Mabuchi Trio
--------------------------------------------------------------------------------

DR         Peak         RMS     Duration Track
--------------------------------------------------------------------------------
DR14      -4.37 dB   -22.75 dB      7:32 01-What Is This Thing Called Love
DR16      -5.78 dB   -27.84 dB      5:10 02-Valse Noire
DR16      -5.27 dB   -25.91 dB      7:20 03-On Green Dolphin Street
DR17      -5.39 dB   -26.73 dB      8:46 04-Seriously
DR16      -6.96 dB   -27.35 dB      8:30 05-Medley: All the things you are, take the A train, satin doll
DR16      -5.97 dB   -27.15 dB     11:17 06-Japanese medley: Hazy Moon, Cherry Blossom, Look at the sky
DR16      -7.31 dB   -30.31 dB      4:19 07-Sona's Song
DR15      -5.02 dB   -23.67 dB      6:16 08-St Thomas
--------------------------------------------------------------------------------

Number of tracks:  8
Official DR value: DR16

Samplerate:        11289600 Hz / PCM Samplerate: 176400 Hz
Channels:          2
Bits per sample:   24
Bitrate:           22579 kbps
Codec:             DSD256
================================================================================
Приватный:
Нет (DHT включён)
Размер:
9.35 Гб (10,034,137,601 байт) » файлов: 11
Участники:
1 раздают, 0 качают (1 участников всего)
Внешние участники:
19 раздают, 6 качают (25 участников всего) [ Обновить ]
Скорость:
0/c 36.23 Кб/c
Есть вопросы - пишите личное сообщение пользователю M0p94ok.
14:52
6
Нет комментариев. Ваш будет первым!