Поиск

2015 Never Enough Hope - The Gravity of Our Commitment [24-44,1]

2015 Never Enough Hope - The Gravity of Our Commitment [24-44,1]
Треклист:

1. You Cannot Fight. 19:55
2. You Are A Gift To Me. 16:52
3. The Gravity Of Our Commitment. 20:20
4. The Responsibility of Purpose. 23:24

 

All pieces composed/conducted by Toby Summerfield
Recorded by Greg Norman at Electrical Audio, june 2012. Mixed thereafter by Greg. Made possible by the generous gifts of Larry Kart and Howard & Mary Busbee, and all the other contributors to my Kickstarter Campaign.

Доп. инфо:

Формат записи/Источник записи: [TR24][OF]
Наличие водяных знаков: Нет
Год издания/переиздания диска: 2015
Жанр: Fusion / Contemporary Jazz / Jazz Avant-Garde
Продолжительность: 80:34 min
Наличие сканов в содержимом раздачи: Нет

Контейнер: FLAC (*.flac)
Тип рипа: tracks
Разрядность: 24/44,1
Формат: WAV (flac.ape.wv)
Количество каналов: 2.0

Источник (релизер): bandcamp.com

Лог проверки качества
foobar2000 1.4.2 / Замер динамического диапазона (DR) 1.1.1
Дата отчёта:  2019-10-08 23:34:15

--------------------------------------------------------------------------------
Анализ:   Never Enough Hope / The Gravity of Our Commitment
--------------------------------------------------------------------------------

DR         Пики         RMS           Продолжительность трека
--------------------------------------------------------------------------------
DR7       -0.38 дБ   -10.28 дБ     19:56 01-You Cannot Fight
DR8       -0.38 дБ   -12.87 дБ     16:52 02-You Are A Gift To Me
DR7       -0.38 дБ   -10.26 дБ     20:21 03-The Gravity Of Our Commitment
DR7       -0.38 дБ   -10.18 дБ     23:25 04-The Responsibility of Purpose
--------------------------------------------------------------------------------

Количество треков: 4
Реальные значения DR: DR7

Частота:   44100 Гц
Каналов:   2
Разрядность:   24
Битрейт:   1545 кбит/с
Кодек:   FLAC
================================================================================
Приватный:
Нет (DHT включён)
Размер:
886.82 Мб (929,898,449 байт) » файлов: 8
Участники:
0 раздают, 0 качают (0 участников всего)
Внешние участники:
5 раздают, 2 качают (7 участников всего) [ Обновить ]
Есть вопросы - пишите личное сообщение пользователю M0p94ok.
12:43
8
Нет комментариев. Ваш будет первым!