Поиск

2017 Told Americans - And The Grey Becomes One {Nub Music} [24-48]

2017 Told Americans - And The Grey Becomes One {Nub Music} [24-48]
Дата издания диска:
9 июня 2017
Носитель:
WEB
Формат:
MLP(PPCM)
Тип рипа:
tracks
Контейнер:
FLAC (*.flac)
Количество каналов:
2.0
Разрядность/ЧД:
24/48
Формат записи/Источник записи:
[BR][CO]
Время звучания:
00:48:56
Наличие сканов:
только обложка
Наличие водяных знаков:
нет
Релизёр (источник):
M0p94ok
Треклист:

01. Other People's Lives (6:47)
02. Traffic (8:09)
03. All the Things (6:26)
04. Lies (4:46)
05. London City State (7:38)
06. The Night Is Bright in Belgrade (10:34)
07. Which Side Are You On? (4:34)

Доп. инфо:
Лог проверки качества
foobar2000 1.4.3 / Dynamic Range Meter 1.1.1
log date: 2019-07-11 14:49:06

--------------------------------------------------------------------------------
Analyzed: Told Americans / And the Grey Becomes One
--------------------------------------------------------------------------------

DR         Peak         RMS     Duration Track
--------------------------------------------------------------------------------
DR7        0.00 dB    -9.19 dB      6:47 01-Other People's Lives
DR8        0.00 dB    -9.11 dB      8:09 02-Traffic
DR6       -0.10 dB    -7.11 dB      6:27 03-All the Things
DR5       -0.10 dB    -7.25 dB      4:46 04-Lies
DR6       -0.10 dB    -7.47 dB      7:38 05-London City State
DR5       -0.10 dB    -7.23 dB     10:34 06-The Night Is Bright in Belgrade
DR7       -0.11 dB   -12.04 dB      4:35 07-Which Side Are You On?
--------------------------------------------------------------------------------

Number of tracks:  7
Official DR value: DR6

Samplerate:        48000 Hz
Channels:          2
Bits per sample:   24
Bitrate:           1357 kbps
Codec:             FLAC
================================================================================
Приватный:
Да (DHT отключён)
Размер:
627.21 Мб (657,675,448 байт) » файлов: 8
Участники:
4 раздают, 0 качают (4 участников всего)
Внешние участники:
--- [ Обновить ]
Нет сидеров - пишите личное сообщение M0p94ok. Не нравятся торренты? Участники группы Pro-jazz Club могут заказать прямую ссылку на скачивание из облака.
No seeders - write a personal message to M0p94ok. Don't like torrents? Members of Pro-jazz Club group can order a direct download link from the cloud.
15:35
35
Нет комментариев. Ваш будет первым!