Поиск

1981 Makoto Matsushita - First Light (2018) {Warner} [24-96]

1981 Makoto Matsushita - First Light (2018) {Warner} [24-96]
Стили:
Издатель (лейбл):
Треклист:

01 First Light 04:33
02 One Hot Love 04:20
03 Resort for Blue 01:23
04 September Rain 04:29
05 Lazy Night 04:48
06 This Is All I Have for You 05:07
07 I Know... 01:59
08 Love Was Really Gone 05:47
09 Sunset 08:18
10 September Rain (Japanese Version) 04:30

Доп. инфо:

Формат записи/Источник записи: [TR24][OF]
Наличие водяных знаков: Нет
Год издания/переиздания диска: 2018/1981
Продолжительность: 00:45:14
Наличие сканов в содержимом раздачи: Только обложка альбома

Контейнер: FLAC (*.flac)
Тип рипа: tracks
Разрядность: 24/96
Формат: WAV (flac.ape.wv)
Количество каналов: 2.0

Источник (релизер): www.highresaudio.com

Лог проверки качества
foobar2000 1.3.7 / Dynamic Range Meter 1.1.1
log date: 2019-01-19 13:37:06

--------------------------------------------------------------------------------
Analyzed: Makoto Matsushita / First Light (2018 Remaster)
--------------------------------------------------------------------------------

DR         Peak         RMS     Duration Track
--------------------------------------------------------------------------------
DR8       -0.11 dB    -9.48 dB      4:33 01-First Light (2018 Remaster)
DR7       -0.11 dB    -8.60 dB      4:21 02-One Hot Love (2018 Remaster)
DR13      -0.11 dB   -15.63 dB      1:24 03-Resort for Blue (2018 Remaster)
DR10      -0.11 dB   -11.62 dB      4:29 04-September Rain (2018 Remaster)
DR7       -0.11 dB    -8.57 dB      4:49 05-Lazy Night (2018 Remaster)
DR9       -0.11 dB   -10.55 dB      5:08 06-This Is All I Have for You (2018 Remaster)
DR11      -0.31 dB   -15.79 dB      2:00 07-I Know... (2018 Remaster)
DR9       -0.11 dB   -10.87 dB      5:48 08-Love Was Really Gone (2018 Remaster)
DR8       -0.11 dB    -9.97 dB      8:19 09-Sunset (2018 Remaster)
DR8       -0.11 dB   -10.21 dB      4:31 10-September Rain (Japanese Version 2018 Remaster)
--------------------------------------------------------------------------------

Number of tracks:  10
Official DR value: DR9

Samplerate:        96000 Hz
Channels:          2
Bits per sample:   24
Bitrate:           2946 kbps
Codec:             FLAC
================================================================================
Приватный:
Нет (DHT включён)
Размер:
980.63 Мб (1,028,262,223 байт) » файлов: 12
Участники:
0 раздают, 0 качают (0 участников всего)
Внешние участники:
--- [ Обновить ]
Есть вопросы - пишите личное сообщение пользователю M0p94ok.
19:01
42
Нет комментариев. Ваш будет первым!