Поиск

2017 Sinne Eeg - Dreams {Master Music} [DST64 ISO]

2017 Sinne Eeg - Dreams {Master Music} [DST64 ISO]
Стили:
Место записи:
Systems Two Studios, Brooklyn, New York City, NY, USA
Дата издания диска:
27 октября 2017
Номер по каталогу:
MKSA 699102
Носитель:
SACD
Формат:
DST
Тип рипа:
image
Контейнер:
ISO (*.iso)
Количество каналов:
2.0
Разрядность/ЧД:
64 (2,8 MHz/1 Bit)
Битрейт аудио:
lossless
Время звучания:
00:57:55
Наличие сканов:
только обложка

01. The Bitter End
02. Head Over High Heels
03. Love Song
04. What Is This Thing Called Love
05. Falling In Love With Love
06. Dreams
07. Aleppo
08. Time To Go
09. I'll Remember April
10. Anything Goes
11. On A Clear Day
Bonus
12. Rain

Состав:
  •     Backing Vocals – Jenny Nilsson (2), Lasse Nilsson*, Sinne Eeg, Warny Mandrup
  •     Bass – Scott Colley
  •     Drums – Joey Baron
  •     Guitar – Larry Koonse
  •     Mixed By, Mastered By – Lasse Nilsson
  •     Piano – Jacob Christoffersen
  •     Producer – Sinne Eeg
  •     Producer [Vocals] – Boe Larsen
  •     Recorded By – Mike Marciano
  •     Vocals – Sinne Eeg
Лог проверки качества
foobar2000 1.6.8 / Dynamic Range Meter 1.1.1
log date: 2021-12-27 21:49:48
--------------------------------------------------------------------------------
Analyzed: Sinne Eeg / Dreams
--------------------------------------------------------------------------------
DR         Peak         RMS     Duration Track
--------------------------------------------------------------------------------
DR12      -4.72 dB   -18.50 dB      4:40 01-The Bitter End
DR11      -4.98 dB   -19.58 dB      4:29 02-Head Over High Heels
DR13      -5.83 dB   -22.04 dB      3:37 03-Love Song
DR13      -4.60 dB   -21.09 dB      4:57 04-What Is This Thing Called Love
DR11      -5.94 dB   -19.43 dB      5:20 05-Falling In Love With Love
DR12      -4.77 dB   -20.53 dB      5:54 06-Dreams
DR12      -5.80 dB   -22.28 dB      4:49 07-Aleppo
DR13      -5.51 dB   -20.89 dB      4:59 08-Time To Go
DR12      -5.85 dB   -20.79 dB      4:33 09-I'll Remember April
DR12      -6.17 dB   -20.28 dB      3:24 10-Anything Goes
DR13      -4.50 dB   -20.20 dB      5:26 11-On A Clear Day
DR11      -6.19 dB   -21.01 dB      5:48 12-Rain
--------------------------------------------------------------------------------
Number of tracks:  12
Official DR value: DR12
Samplerate:        2822400 Hz / PCM Samplerate: 88200 Hz
Channels:          2
Bits per sample:   1
Bitrate:           5645 kbps
Codec:             DST64
================================================================================
15:52
601
Нет комментариев. Ваш будет первым!