Поиск

1974 Jack DeJohnette - Sorcery (2020) {Prestige, Craft} [24-192]

1974 Jack DeJohnette - Sorcery (2020) {Prestige, Craft} [24-192]
Стили:
Дата записи диска:
март - май 1974
Место записи:
Willow, NY; Bearsville Studios, Bearsville, NY
Дата переиздания диска:
30 октября 2020
Издатель (лейбл):
Носитель:
WEB
Формат:
PCM
Тип рипа:
tracks
Контейнер:
FLAC (*.flac)
Количество каналов:
2.0
Разрядность/ЧД:
24/192
Битрейт аудио:
lossless
Наличие сканов:
только обложка

1. Sorcery #1  13:53
2. The Right Time  02:21
3. The Rock Thing  04:15
4. The Reverend King Suite:
    a) Reverend King /
    b) Obstructions /
    c) The Fatal Shot /
    d) Mourning /
    e) Unrest /
    f) New Spirits On The  14:22
5. Four Levels Of Joy  03:12
6. Epilog  03:14

Состав:
  • Dave Holland     Bass, Composer, Vocals
  • Bennie Maupin     Clarinet, Clarinet (Bass), Sax (Tenor), Vocals
  • Jack DeJohnette     Composer, Drums, Keyboards, Producer, Saxophone, Vocals
  • Dennis Leonard     Engineer
  • Adam Taylor     Engineer
  • John Abercrombie     Guitar, Guitar (Electric), Vocals
  • Mick Goodrick     Guitar, Guitar (Electric), Vocals
  • Michael Fellerman     Metaphone, Trombone
Лог проверки качества
foobar2000 1.6.10 / Dynamic Range Meter 1.1.1
log date: 2022-09-14 19:10:02

--------------------------------------------------------------------------------
Analyzed: Jack DeJohnette / Sorcery
--------------------------------------------------------------------------------

DR         Peak         RMS     Duration Track
--------------------------------------------------------------------------------
DR15      -0.57 dB   -20.37 dB     13:53 01-Sorcery #1
DR14      -0.20 dB   -19.28 dB      2:21 02-The Right Time
DR12      -2.49 dB   -18.28 dB      4:16 03-The Rock Thing
DR14      -2.86 dB   -23.82 dB     14:23 04-The Reverend King Suite: a) Reverend King / b) Obstructions / c) The Fatal Shot / d) Mourning / e) Unrest / f) New Spirits On The Horizon
DR12      -5.00 dB   -19.63 dB      3:12 05-Four Levels Of Joy
DR12      -0.20 dB   -15.71 dB      3:14 06-Epilog
--------------------------------------------------------------------------------

Number of tracks:  6
Official DR value: DR13

Samplerate:        192000 Hz
Channels:          2
Bits per sample:   24
Bitrate:           5680 kbps
Codec:             FLAC
================================================================================
Приватный:
Нет (DHT включён)
Размер:
1.58 Гб (1,699,452,439 байт) » файлов: 9
Участники:
0 раздают, 0 качают (0 участников всего)
Внешние участники:
--- [ Обновить ]
19:23
631
Нет комментариев. Ваш будет первым!