Вы используете незарегистрированную версию компонента "Вкладки"!

Поиск

2017 Scott Hamilton - Ballads For Audiophiles {Fonè} [24-88,2]

2017 Scott Hamilton - Ballads For Audiophiles {Fonè} [24-88,2]
Стили:
Битрейт аудио:
lossless
Доп. инфо:

Формат записи/Источник записи: [TR24][OF]
Год издания/переиздания диска: 2017
Издатель (лейбл): Fonè Records
Продолжительность: 00:59:17
Наличие сканов в содержимом раздачи: Буклет PDF

Контейнер: FLAC (*.flac)
Тип рипа: tracks
Разрядность: 24/88,2
Количество каналов: 2.0

Источник (релизер): Qobuz

Лог проверки качества
foobar2000 1.3.14 / Dynamic Range Meter 1.1.1
log date: 2017-05-28 23:52:58

--------------------------------------------------------------------------------
Analyzed: Scott Hamilton, Paolo Birro, Alfred Kramer, Aldo Zunino / Ballads for Audiophiles
--------------------------------------------------------------------------------

DR         Peak         RMS     Duration Track
--------------------------------------------------------------------------------
DR14      -2.21 dB   -21.72 dB      5:57 01-Everything Happens To Me
DR13      -2.31 dB   -18.56 dB      7:01 02-All Or Nothing At All
DR15      -2.50 dB   -22.02 dB      5:31 03-The Gypsy
DR14      -3.42 dB   -22.43 dB      6:52 04-Moon River
DR14      -4.06 dB   -22.36 dB      7:09 05-This Is All I Ask
DR14      -1.71 dB   -19.51 dB      5:35 06-Hey There
DR14      -2.91 dB   -22.28 dB      5:37 07-The Shadow Of Your Smile
DR16      -0.98 dB   -20.34 dB      6:11 08-Baby All The Time
DR13      -1.33 dB   -20.56 dB      4:15 09-Se Todos Fossem Iguais A Voçê
DR15      -3.00 dB   -22.11 dB      5:15 10-Goodbye
--------------------------------------------------------------------------------

Number of tracks:  10
Official DR value: DR14

Samplerate:        88200 Hz
Channels:          2
Bits per sample:   24
Bitrate:           2644 kbps
Codec:             FLAC
================================================================================
Any questions - support@pro-jazz.com. Есть вопросы - support@pro-jazz.com
23:17
298
Нет комментариев. Ваш будет первым!