Вы используете незарегистрированную версию компонента "Вкладки"!

Поиск

1961 Mark Murphy - Rah! (2019) {RevOla} [24-44,1]

1961 Mark Murphy - Rah! (2019) {RevOla} [24-44,1]
Стили:
Издатель (лейбл):
Битрейт аудио:
lossless
Доп. инфо:

Формат записи/Источник записи: [TR24][OF]
Издание: Remastered
Год издания/переиздания диска: 1961/2019
Продолжительность: 00:37:38
Наличие сканов в содержимом раздачи: Нет

Контейнер: FLAC (*.flac)
Тип рипа: tracks
Разрядность: 24/44,1
Количество каналов: 2.0

Источник (релизер): Qobuz

Лог проверки качества
foobar2000 1.4.3 / Dynamic Range Meter 1.1.1
log date: 2020-04-09 18:55:37

--------------------------------------------------------------------------------
Analyzed: Mark Murphy / Rah!
--------------------------------------------------------------------------------

DR         Peak         RMS     Duration Track
--------------------------------------------------------------------------------
DR11      -4.84 dB   -20.10 dB      3:13 01, 01-Angel Eyes (Remastered)
DR11      -5.30 dB   -21.37 dB      3:44 02, 02-On Green Dolphin Street (Remastered)
DR12      -5.50 dB   -20.53 dB      3:11 03, 03-Stoppin' The Clock (Remastered)
DR11      -5.69 dB   -21.42 dB      3:49 04, 04-Spring Can Really Hang You Up The Most (Remastered)
DR14      -4.19 dB   -25.13 dB      3:11 05, 05-No Tears For Me (Remastered)
DR13      -5.01 dB   -21.75 dB      4:50 06, 06-Out Of This World (Remastered)
DR13      -4.91 dB   -20.75 dB      2:31 07, 07-Milestones (Remastered)
DR12      -5.26 dB   -22.40 dB      2:17 08, 08-My Favorite Things (Remastered)
DR12      -4.10 dB   -22.06 dB      3:30 09, 09-Doodlin' (Remastered)
DR14      -5.17 dB   -22.77 dB      5:02 10, 10-Li'l Darlin' (Remastered)
DR13      -4.00 dB   -20.60 dB      2:28 11, 11-Twisted (Remastered)
--------------------------------------------------------------------------------

Number of tracks:  11
Official DR value: DR12

Samplerate:        44100 Hz
Channels:          2
Bits per sample:   24
Bitrate:           1474 kbps
Codec:             FLAC
================================================================================
Any questions - support@pro-jazz.com. Есть вопросы - support@pro-jazz.com
23:12
526
Нет комментариев. Ваш будет первым!