Поиск

2017 Romero Lubambo - Sampa {Sunnyside} [24-44.1]

2017 Romero Lubambo - Sampa {Sunnyside} [24-44.1]
Дата записи диска:
26 апреля - 28 апреля 2015
Место записи:
Da Pá Virada, São Paulo, Brazil
Дата издания диска:
5 мая 2017
Издатель (лейбл):
Носитель:
WEB
Формат:
PCM
Тип рипа:
tracks
Контейнер:
FLAC (*.flac)
Количество каналов:
2.0
Разрядность/ЧД:
24/44,1
Битрейт аудио:
lossless
Время звучания:
00:51:41
Наличие сканов:
только обложка

01 - Gostoso demais 04:25
02 - Estamos aí 04:40
03 - Contrato de separação 04:16
04 - New Slash Blues 04:27
05 - Paquito In Bremen (for Paquito D'Rivera) 04:14
06 - P'Ro Flavio (for My Father) 06:27
07 - Nature's Beauty 04:18
08 - Dipper Mouth 04:40
09 - Luisa (for My Daughter) 03:26
10 - For Donato (for João Donato) 06:06
11 - Song for Kaya 04:42

Лог проверки качества
foobar2000 1.4.3 / Dynamic Range Meter 1.1.1
log date: 2021-07-01 22:32:51

--------------------------------------------------------------------------------
Analyzed: Romero Lubambo / Sampa
--------------------------------------------------------------------------------

DR         Peak         RMS     Duration Track
--------------------------------------------------------------------------------
DR9       -0.40 dB   -10.85 dB      4:25 01-Gostoso demais
DR7       -0.40 dB    -9.75 dB      4:40 02-Estamos aí
DR9       -0.40 dB   -11.47 dB      4:16 03-Contrato de separação
DR7       -0.40 dB    -9.51 dB      4:28 04-New Slash Blues
DR10      -0.40 dB   -11.41 dB      4:15 05-Paquito In Bremen (for Paquito D’Rivera)
DR8       -0.40 dB   -11.68 dB      6:28 06-P’Ro Flavio (for My Father)
DR9       -0.40 dB   -10.56 dB      4:18 07-Nature’s Beauty
DR7       -0.40 dB    -8.96 dB      4:40 08-Dipper Mouth
DR8       -0.40 dB   -11.22 dB      3:27 09-Luisa (for My Daughter)
DR9       -0.40 dB   -10.89 dB      6:06 10-For Donato (for João Donato)
DR9       -0.40 dB   -10.71 dB      4:42 11-Song for Kaya
--------------------------------------------------------------------------------

Number of tracks:  11
Official DR value: DR8

Samplerate:        44100 Hz
Channels:          2
Bits per sample:   24
Bitrate:           1448 kbps
Codec:             FLAC
================================================================================
Приватный:
Нет (DHT включён)
Размер:
543.05 Мб (569,429,819 байт) » файлов: 16
Участники:
13 раздают, 1 качают (14 участников всего)
Внешние участники:
5 раздают, 2 качают (7 участников всего) [ Обновить ]
19:51
720
Нет комментариев. Ваш будет первым!