Поиск

2002 Steve Kuhn Trio - Waltz Blue Side (2016) {Venus VHGD-125} [DSD64 ISO]

2002 Steve Kuhn Trio - Waltz Blue Side (2016) {Venus VHGD-125} [DSD64 ISO]
Стили:
Дата записи диска:
9 мая, 10 мая и 11 мая 2002
Место записи:
The Studio, New York City, NY, USA
Дата издания диска:
21 августа 2002
Дата переиздания диска:
20 января 2016
Издатель (лейбл):
Номер по каталогу:
VHGD-125
Носитель:
SACD
Формат:
DSD
Тип рипа:
image
Контейнер:
ISO (*.iso)
Количество каналов:
2.0
Разрядность/ЧД:
64 (2,8 MHz/1 Bit)
Битрейт аудио:
lossless
Время звучания:
00:48:59
Наличие сканов:
да

1. When I Grow Too Old to Dream  05:04
2. Charade  05:51
3. Remember  05:49
4. Years Later  05:29
5. Once Upon a Summertime  04:37
6. I'll Take Romance  07:22
7. I'm Glad There Is You  05:13
8. Pastorale  05:15
9. My Buddy  04:52

Состав:
  • Steve Kuhn — piano
  • Gary Peacock — bass
  • Billy Drummond — drums
Лог проверки качества
foobar2000 1.6.4 / Dynamic Range Meter 1.1.1
log date: 2021-07-10 09:13:50

--------------------------------------------------------------------------------
Analyzed: STEVE KUHN TRIO / Waltz ~Blue Side
--------------------------------------------------------------------------------

DR         Peak         RMS     Duration Track
--------------------------------------------------------------------------------
DR9       -5.41 dB   -17.14 dB      5:00 01-When I Grow Too Old To Dream
DR8       -5.24 dB   -15.33 dB      5:47 02-Charade
DR7       -5.28 dB   -14.62 dB      5:44 03-Remember
DR7       -5.06 dB   -14.71 dB      5:25 04-Years Later
DR10      -5.30 dB   -18.68 dB      4:33 05-Once Upon A Summertime
DR7       -5.17 dB   -14.46 dB      7:18 06-I'll Take Romance
DR8       -5.22 dB   -15.76 dB      5:09 07-I'm Glad There Is You
DR8       -5.31 dB   -15.78 dB      5:11 08-Pastorale
DR9       -5.35 dB   -16.46 dB      4:53 09-My Buddy
--------------------------------------------------------------------------------

Number of tracks:  9
Official DR value: DR8

Samplerate:        2822400 Hz / PCM Samplerate: 88200 Hz
Channels:          2
Bits per sample:   1
Bitrate:           5645 kbps
Codec:             DSD64
================================================================================
Приватный:
Нет (DHT включён)
Размер:
2.00 Гб (2,142,640,154 байт) » файлов: 5
Участники:
0 раздают, 0 качают (0 участников всего)
Внешние участники:
7 раздают, 2 качают (9 участников всего) [ Обновить ]
Скорость:
2.44 Мб/c 0/c
23:31
567
Нет комментариев. Ваш будет первым!