Поиск

2017 Olli Hirvonen - New Helsinki (2018) {Edition} [24-96]

2017 Olli Hirvonen - New Helsinki (2018) {Edition} [24-96]
Стили:
Издатель (лейбл):

Треклист:

Формат записи/Источник записи: [TR24][OF]
Наличие водяных знаков: Нет
Год издания/переиздания диска: 2017/2018
Продолжительность: 55:30
Наличие сканов в содержимом раздачи: Только обложка альбома
Контейнер: FLAC (*.flac)
Тип рипа: tracks
Разрядность: 24/96
Формат: PCM
Количество каналов: 2.0
Источник: qobuz.com

Треклист:
01. Arps (4:08)
02. Gravity (10:29)
03. Invisible (11:47)
04. Fundamental (6:12)
05. NEB (4:09)
06. Absolute (11:55)
07. Lavola (6:50)

 
Лог проверки качества
foobar2000 1.3.9 / Dynamic Range Meter 1.1.1
log date: 2018-06-28 19:40:36
--------------------------------------------------------------------------------
Analyzed: Olli Hirvonen / New Helsinki
--------------------------------------------------------------------------------
DR         Peak         RMS     Duration Track
--------------------------------------------------------------------------------
DR9       -0.60 dB   -10.79 dB      4:08 01-Arps
DR10      -0.60 dB   -12.46 dB     10:29 02-Gravity
DR9       -0.60 dB   -12.87 dB     11:47 03-Invisible
DR9       -0.60 dB   -11.01 dB      6:12 04-Fundamental
DR9       -0.60 dB   -11.89 dB      4:09 05-NEB
DR9       -0.60 dB   -12.88 dB     11:55 06-Absolute
DR8       -0.60 dB   -12.42 dB      6:50 07-Lavola
--------------------------------------------------------------------------------
Number of tracks:  7
Official DR value: DR9
Samplerate:        96000 Hz
Channels:          2
Bits per sample:   24
Bitrate:           3019 kbps
Codec:             FLAC
================================================================================

 

Приватный:
Нет (DHT включён)
Размер:
1.19 Гб (1,280,688,021 байт) » файлов: 11
Участники:
0 раздают, 0 качают (0 участников всего)
Внешние участники:
2 раздают, 1 качают (3 участников всего) [ Обновить ]
Есть вопросы - пишите личное сообщение пользователю M0p94ok.
14:14
157
Нет комментариев. Ваш будет первым!