Поиск

2017 Alexi Tuomarila Trio - Kingdom (2018) {Edition} [24-44,1]

2017 Alexi Tuomarila Trio - Kingdom (2018) {Edition} [24-44,1]
Стили:
Издатель (лейбл):
Треклист:

Формат записи/Источник записи: [TR24][OF]
Наличие водяных знаков: Нет
Год издания/переиздания диска: 2017/2018
Продолжительность: 55:16
Наличие сканов в содержимом раздачи: Только обложка альбома
Контейнер: FLAC (*.flac)
Тип рипа: tracks
Разрядность: 24/44,1
Формат: PCM
Количество каналов: 2.0
Источник: qobuz.com

Треклист:
01. The Sun Hillock (4:39)
02. Rytter (6:38)
03. The Girl In A Stetson Hat (6:46)
04. Vagabond (5:15)
05. The Times They Are A-Changin' (6:03)
06. Shadows (6:35)
07. Aalto (5:16)
08. Bruin Bay (6:05)
09. White Waters (8:00)

 
Лог проверки качества
foobar2000 1.3.9 / Dynamic Range Meter 1.1.1
log date: 2018-06-28 19:59:09
--------------------------------------------------------------------------------
Analyzed: Alexi Tuomarila Trio / Kingdom
--------------------------------------------------------------------------------
DR         Peak         RMS     Duration Track
--------------------------------------------------------------------------------
DR9       -0.33 dB   -12.12 dB      4:39 01-The Sun Hillock
DR11      -0.33 dB   -15.16 dB      6:38 02-Rytter
DR10      -0.33 dB   -13.66 dB      6:46 03-The Girl In A Stetson Hat
DR8       -0.33 dB   -11.38 dB      5:15 04-Vagabond
DR9       -0.33 dB   -12.23 dB      6:03 05-The Times They Are A-Changin'
DR11      -0.33 dB   -14.30 dB      6:35 06-Shadows
DR11      -0.33 dB   -13.43 dB      5:16 07-Aalto
DR8       -0.33 dB   -10.09 dB      6:05 08-Bruin Bay
DR9       -0.33 dB   -15.23 dB      8:00 09-White Waters
--------------------------------------------------------------------------------
Number of tracks:  9
Official DR value: DR9
Samplerate:        44100 Hz
Channels:          2
Bits per sample:   24
Bitrate:           1347 kbps
Codec:             FLAC
================================================================================
Приватный:
Нет (DHT включён)
Размер:
581.02 Мб (609,245,760 байт) » файлов: 12
Участники:
8 раздают, 1 качают (9 участников всего)
Внешние участники:
5 раздают, 2 качают (7 участников всего) [ Обновить ]
Есть вопросы - пишите личное сообщение пользователю M0p94ok.
14:22
164
Нет комментариев. Ваш будет первым!