Поиск

2017 Massimo Faraò Trio ft. 10 Drums Masters - Swingin' {Verve} [DSD64 ISO]

2017 Massimo Faraò Trio ft. 10 Drums Masters - Swingin' {Verve} [DSD64 ISO]
Стили:
Дата записи диска:
22 марта, 28 марта, 29 марта 2016
Место записи:
Tedesco Studios, Paramus, NJ, USA
Дата издания диска:
21 июня 2017
Издатель (лейбл):
Номер по каталогу:
VHGD-224
Носитель:
SACD
Формат:
DSD
Тип рипа:
image
Контейнер:
ISO (*.iso)
Количество каналов:
2.0
Разрядность/ЧД:
64 (2,8 MHz/1 Bit)
Битрейт аудио:
lossless
Время звучания:
01:11:46
Наличие сканов:
только обложка

01. Moanin'《 B. Timmons 》
02. On A Clear Day《 J. Ross 》
03. Almost Like Being In Love《 A.Lerner, F. Loewe 》
04. Yours Is My Heart Alone《 F. Lehar 》
05. I Hear A Rhapsody《 G. Fragos, J. Baker, D. Gasparre 》
06. Just You Just Me《 J. Greer 》
07. Falling In Love With Love《 R. Rodgers 》
08. Azule Serape《 V. Feldman 》
09. A Beautiful Friendship《 S. Cahn, J. Styne 》
10. Harlem Blues《 P. Newborn Jr 》

Состав:
  • Massimo Farao' — piano
  • Aldo Zunino — bass (1,5,7,10)
  • Bob Cranshaw — bass (2,4,6,8,9)
  • Paolo Benedettini — bass (3)
  • Carmen Intorre — drums (1)
  • Kenny Washington — drums (2)
  • Billy Hart — drums (3)
  • Leroy Williams — drums (4)
  • Joe Farnsworth — drums (5)
  • Byron Landham — drums (6)
  • Jimmy Cobb — drums (7)
  • Louis Hayes — drums (8)
  • Steve Williams — drums (9)
  • Kyle Poole — drums (10)
Лог проверки качества
foobar2000 1.6.7 / Замер динамического диапазона (DR) 1.1.1
Дата отчёта:  2021-10-27 13:12:45
--------------------------------------------------------------------------------
Анализ:   MASSIMO FARAO' TRIO / Swingin'
--------------------------------------------------------------------------------
DR         Пики         RMS           Продолжительность трека
--------------------------------------------------------------------------------
DR8       -3.80 дБ   -13.74 дБ      8:08 01-Moanin'
DR8       -3.74 дБ   -13.58 дБ      6:21 02-On A Clear Day
DR8       -4.61 дБ   -14.14 дБ      9:21 03-Almost Like Being In Love
DR8       -4.04 дБ   -13.59 дБ      7:22 04-Yours Is My Heart Alone
DR8       -4.45 дБ   -13.88 дБ      4:40 05-I Hear A Rhapsody
DR8       -4.31 дБ   -14.47 дБ      6:28 06-Just You Just Me
DR7       -4.40 дБ   -13.23 дБ      8:00 07-Falling In Love With Love
DR9       -4.30 дБ   -14.46 дБ      6:38 08-Azule Serape
DR8       -4.29 дБ   -13.69 дБ      8:59 09-A Beautiful Friendship
DR7       -3.96 дБ   -12.80 дБ      5:51 10-Harlem Blues
--------------------------------------------------------------------------------
Количество треков: 10
Реальные значения DR: DR8
Приватный:
Нет (DHT включён)
Размер:
2.90 Гб (3,114,498,253 байт) » файлов: 4
Участники:
0 раздают, 1 качают (1 участников всего)
Внешние участники:
8 раздают, 2 качают (10 участников всего) [ Обновить ]
17:41
388
Нет комментариев. Ваш будет первым!