Поиск

2017 Marialy Pacheco - Duets {Neuklang} [24-96]

2017 Marialy Pacheco - Duets {Neuklang} [24-96]
Издатель (лейбл):
Битрейт аудио:
lossless
Треклист:

01. El Bola (with Omar Sosa) 06:34
02. Capricho do Sul (with Hamilton de Holanda) 05:02
03. Metro (with Joo Kraus) 06:06
04. You (with Max Mutzke) 05:24
05. Gitanerias (Marialy with Marialy) 03:15
06. Burundanga (with Rhani Krija) 08:42
07. La Comparsa (with Miguel Zenon) 08:40
08. La Bikina (Marialy with Marialy) 06:51
09. El Bola "Warming Up" (with Omar Sosa) (Bonus Track) 07:04

Доп. инфо:

Формат записи/Источник записи: [TR24][OF]
Наличие водяных знаков: Нет
Год издания/переиздания диска: 2017
Продолжительность: 00:57:36
Наличие сканов в содержимом раздачи: Буклет PDF
Источник (релизер): highresaudio

Контейнер: FLAC (*.flac)
Тип рипа: tracks
Разрядность: 24/96
Формат: PCM
Количество каналов: 2.0

Лог проверки качества
foobar2000 1.1.15 / Dynamic Range Meter 1.1.1
log date: 2020-03-04 10:49:03

--------------------------------------------------------------------------------
Analyzed: Hamilton De Holanda / Duets (1)
          Joo Kraus / Duets (2)
          Marialy Pacheco & Miguel Zenon / Duets (3)
          Marialy Pacheco / Duets (4-6)
          Max Mutzke / Duets (7)
          Omar Sosa / Duets (8-9)
--------------------------------------------------------------------------------

DR         Peak         RMS     Duration Track
--------------------------------------------------------------------------------
DR11      -0.70 dB   -13.95 dB      5:02 02-Capricho do Sul
DR10      -0.70 dB   -13.14 dB      6:06 03-Metro
DR11      -0.89 dB   -15.09 dB      8:40 07-La Comparsa
DR10      -0.74 dB   -13.63 dB      3:15 05-Gitanerias
DR11      -0.70 dB   -14.89 dB      8:42 06-Burundanga
DR11      -0.70 dB   -13.97 dB      6:51 08-La Bikina
DR9       -0.70 dB   -13.55 dB      5:24 04-You
DR10      -0.70 dB   -14.02 dB      6:34 01-El Bola
DR11      -0.70 dB   -14.20 dB      7:04 09-El Bola "Warming Up" (Bonus Track)
--------------------------------------------------------------------------------

Number of tracks:  9
Official DR value: DR10

Samplerate:        96000 Hz
Channels:          2
Bits per sample:   24
Bitrate:           2654 kbps
Codec:             FLAC
================================================================================
Приватный:
Нет (DHT включён)
Размер:
1.08 Гб (1,164,978,676 байт) » файлов: 13
Участники:
0 раздают, 1 качают (1 участников всего)
Внешние участники:
5 раздают, 1 качают (6 участников всего) [ Обновить ]
No seeders - write a personal message to user M0p94ok. Нет сидеров - пишите личное сообщение пользователю M0p94ok.
20:18
28
Нет комментариев. Ваш будет первым!