Вы используете незарегистрированную версию компонента "Вкладки"!

Поиск

1972 Baden Powell - Images on Guitar (2016) {MPS, Edel} [DSD64]

1972 Baden Powell - Images on Guitar (2016) {MPS, Edel} [DSD64]
Битрейт аудио:
lossless
Доп. инфо:

Формат записи/Источник записи: [DSD][OF]
Наличие водяных знаков: Нет
Издание: Remastered
Год издания/переиздания диска: 1972 / 2016
Издатель (лейбл): MPS Records / Edel Germany GmbH
Продолжительность: 41:35
Наличие сканов в содержимом раздачи: Только обложка альбома

Контейнер: DSF (*.dsf)
Тип рипа: tracks
Разрядность: 64 (2,8 MHz/1 Bit)
Формат: DSD
Количество каналов: 2.0

Источник (релизер): https://www.highresaudio.com/en/album/view/e853rd/baden-powell-images-on-guitar

Лог проверки качества
foobar2000 1.4 / Dynamic Range Meter 1.1.1
log date: 2020-03-05 01:33:37

--------------------------------------------------------------------------------
Analyzed: Baden Powell / Images on Guitar
--------------------------------------------------------------------------------

DR         Peak         RMS     Duration Track
--------------------------------------------------------------------------------
DR9       -4.17 dB   -15.95 dB      4:35 01-Até Eu
DR11      -5.16 dB   -19.04 dB      4:01 02-Petit Waltz
DR10      -4.80 dB   -17.39 dB      4:37 03-Violão Cagabundo
DR12      -3.19 dB   -18.64 dB      7:37 04-Conversação Comigo Mesmo
DR11      -3.82 dB   -17.03 dB      8:58 05-Blues à Volonté
DR12      -8.52 dB   -22.95 dB      4:15 06-Sentimentos, Se Você Pergunta Nunca Vai Saber
DR11      -4.18 dB   -17.84 dB      2:27 07-É De Lei
DR12      -6.39 dB   -23.46 dB      5:04 08-Canto
--------------------------------------------------------------------------------

Number of tracks:  8
Official DR value: DR11

Samplerate:        2822400 Hz / PCM Samplerate: 352800 Hz
Channels:          2
Bits per sample:   1
Bitrate:           5645 kbps
Codec:             DSD64
================================================================================
Any questions - support@pro-jazz.com. Есть вопросы - support@pro-jazz.com
22:36
273
Нет комментариев. Ваш будет первым!