Вы используете незарегистрированную версию компонента "Вкладки"!

Поиск

2017 Kip Hanrahan - Waning Crescent Moon {American Clave AMCL 1062} [24-88,2]

2017 Kip Hanrahan - Waning Crescent Moon {American Clave AMCL 1062} [24-88,2]
Номер по каталогу:
AMCL 1062
Носитель:
WEB
Формат:
PCM
Тип рипа:
tracks+.cue
Контейнер:
APE (*.ape)
Количество каналов:
2.0
Разрядность/ЧД:
24/88,2
Битрейт аудио:
lossless
Время звучания:
01:03:17
Наличие сканов:
да
Страна-производитель диска (релиза):
Japan
Релизёр (источник):
M0p94ok
Лог проверки качества
foobar2000 1.5.5 / Dynamic Range Meter 1.1.1
log date: 2020-09-24 20:31:10

--------------------------------------------------------------------------------
Analyzed: Kip Hanrahan / Waning Crescent Moon
--------------------------------------------------------------------------------

DR         Peak         RMS     Duration Track
--------------------------------------------------------------------------------
DR9       -0.09 dB   -11.33 dB      5:30 01-She can measure the history of dreams
DR10     -11.05 dB   -26.12 dB      2:00 02-Lucia's young night
DR9       -0.31 dB   -10.36 dB      4:32 03-Dancing with sweetness, tonight
DR9       -0.02 dB   -10.42 dB      2:23 04-Perfect math, in a model bronx childhood
DR9       -0.35 dB   -10.32 dB      1:27 05-Our reflection in the turbulent heat
DR10      -0.40 dB   -12.95 dB      3:33 06-Silvana laughs at the film noir shadows
DR7        0.00 dB    -8.97 dB      6:06 07-Andy laughs at one of the few golden veins
DR8       -0.17 dB   -10.04 dB      6:38 08-We were not alone
DR9       -0.40 dB   -10.82 dB      2:34 09-Name us light
DR10      -0.19 dB   -12.13 dB      2:03 10-Sometimes I can go for nights, forgetting
DR7       -0.25 dB    -9.13 dB      6:38 11-She and He describe the exact same intimate moment
DR11      -1.23 dB   -16.35 dB      0:30 12-A naked woman, comfortable
DR12      -1.21 dB   -16.47 dB      0:29 13-A more naked man, frightened
DR11      -0.40 dB   -14.12 dB      1:01 14-The dusk coming to a moving rest
DR9       -0.24 dB   -10.71 dB      4:31 15-Somewhere in the deepest blue
DR11      -0.38 dB   -13.84 dB      1:37 16-The heat changed the colors of my eyes
DR14      -0.40 dB   -17.62 dB      1:56 17-The night finding it's form
DR18      -6.08 dB   -28.29 dB      0:47 18-Some Scottish Lullaby
DR11      -0.40 dB   -13.98 dB      3:48 19-In Olinda, she calmly explained the use of the reflexive
DR9       -0.37 dB   -11.31 dB      5:22 20-All us working class boys
--------------------------------------------------------------------------------

Number of tracks:  20
Official DR value: DR10

Samplerate:        88200 Hz
Channels:          2
Bits per sample:   24
Bitrate:           2588 kbps
Codec:             FLAC
================================================================================
Any questions - support@pro-jazz.com. Есть вопросы - support@pro-jazz.com
20:54
229
Нет комментариев. Ваш будет первым!