Вы используете незарегистрированную версию компонента "Вкладки"!

Поиск

2016 Miriam Netti - La Bossa {Timezone} [24-96]

2016 Miriam Netti - La Bossa {Timezone} [24-96]
Стили:
Носитель:
WEB
Формат:
PCM
Тип рипа:
tracks+.cue
Контейнер:
FLAC (*.flac)
Количество каналов:
2.0
Разрядность/ЧД:
24/96
Битрейт аудио:
lossless
Время звучания:
00:57:28
Наличие сканов:
web
Страна-производитель диска (релиза):
Italy
Релизёр (источник):
M0p94ok
Лог проверки качества
foobar2000 1.5.5 / Dynamic Range Meter 1.1.1
log date: 2020-09-24 20:02:01

--------------------------------------------------------------------------------
Analyzed: Miriam Netti / La Bossa
--------------------------------------------------------------------------------

DR         Peak         RMS     Duration Track
--------------------------------------------------------------------------------
DR8       -0.30 dB   -10.64 dB      5:50 01-Piccole mele verdi
DR7       -0.30 dB    -8.74 dB      3:33 02-Apri la porta
DR7       -0.30 dB    -9.06 dB      4:30 03-Maddalena
DR8       -0.30 dB   -10.94 dB      7:00 04-Cominciar di nuovo
DR8       -0.30 dB    -9.73 dB      3:50 05-Love In Portofino
DR9       -0.30 dB   -10.55 dB      4:00 06-Diva
DR8       -0.30 dB    -9.96 dB      5:06 07-Incompatibilità
DR8       -0.30 dB   -10.14 dB      3:49 08-Neruda
DR8       -0.30 dB   -10.75 dB      2:32 09-Lontano lontano
DR8       -0.30 dB   -10.30 dB      4:22 10-La più bella del mondo
DR8       -0.30 dB   -12.49 dB      3:40 11-Dettagli
DR8       -0.30 dB   -10.49 dB      5:14 12-Ottobre
DR7       -0.30 dB    -9.48 dB      3:47 13-Un disco
--------------------------------------------------------------------------------

Number of tracks:  13
Official DR value: DR8

Samplerate:        96000 Hz
Channels:          2
Bits per sample:   24
Bitrate:           2934 kbps
Codec:             FLAC
================================================================================
Any questions - support@pro-jazz.com. Есть вопросы - support@pro-jazz.com
20:18
213
Нет комментариев. Ваш будет первым!