Поиск

2017 Kari Ikonen Trio - Ikonostasis {Ozella Music} [24-44.1]

2017 Kari Ikonen Trio - Ikonostasis {Ozella Music} [24-44.1]
Стили:
Дата издания диска:
20 апреля 2017
Издатель (лейбл):
Носитель:
WEB
Формат:
PCM
Тип рипа:
tracks
Контейнер:
FLAC (*.flac)
Количество каналов:
2.0
Разрядность/ЧД:
24/44,1
Битрейт аудио:
lossless
Время звучания:
00:39:54
Наличие сканов:
буклет pdf
Страна-производитель диска (релиза):
Finland

1. Toccatina   00:39
2. Sinephony   02:07
3. Prophètes   03:44
4. Biangular   05:43
5. Sacrement   04:27
6. Trinity   14:35
7. Porte de l’Est   03:38
8. Catubada de Teheran   01:31
9. Cappella nella Luna   03:30

Состав:
  • Kari Ikonen, piano
  • Olli Rantala, double bass
  • Markku Ounaskari, drums
Лог проверки качества
foobar2000 1.6.2 / Dynamic Range Meter 1.1.1
log date: 2021-11-12 23:26:39

--------------------------------------------------------------------------------
Analyzed: Kari Ikonen Trio / Ikonostasis
--------------------------------------------------------------------------------

DR         Peak         RMS     Duration Track
--------------------------------------------------------------------------------
DR9       -0.68 dB   -12.28 dB      0:39 01-Toccatina
DR7       -2.09 dB   -11.07 dB      2:07 02-Sinephony
DR9       -1.10 dB   -13.97 dB      3:44 03-Prophètes
DR11      -0.51 dB   -15.98 dB      5:43 04-Biangular
DR10      -0.67 dB   -13.44 dB      4:27 05-Sacrement
DR11      -0.48 dB   -15.80 dB     14:35 06-Trinity
DR10      -1.20 dB   -13.61 dB      3:38 07-Porte de l’Est
DR10      -0.66 dB   -13.06 dB      1:31 08-Catubada de Teheran
DR9       -1.43 dB   -13.97 dB      3:30 09-Cappella nella Luna
--------------------------------------------------------------------------------

Number of tracks:  9
Official DR value: DR9

Samplerate:        44100 Hz
Channels:          2
Bits per sample:   24
Bitrate:           1219 kbps
Codec:             FLAC
================================================================================
Приватный:
Нет (DHT включён)
Размер:
386.11 Мб (404,864,157 байт) » файлов: 12
Участники:
4 раздают, 0 качают (4 участников всего)
Внешние участники:
--- [ Обновить ]
00:38
506
Нет комментариев. Ваш будет первым!