Поиск

1957 Ethel Ennis - Change Of Scenery (2019) {RevOla} [24-44.1]

1957 Ethel Ennis - Change Of Scenery (2019) {RevOla} [24-44.1]
Стили:
Дата переиздания диска:
18 июля 2019
Издатель (лейбл):
Носитель:
WEB
Формат:
PCM
Тип рипа:
tracks
Контейнер:
FLAC (*.flac)
Количество каналов:
2.0
Разрядность/ЧД:
24/44,1
Битрейт аудио:
lossless
Время звучания:
00:34:32
Наличие сканов:
только обложка

01 - My Foolish Heart 03:02
02 - Happiness Is Just a Thing Called Joe 04:53
03 - Taking a Chance on Love 02:44
04 - I Remember (The Corn Fields of Home) 04:02
05 - I Still Get a Thrill 02:32
06 - The Song Is Ended 02:27
07 - I Cried for You 05:10
08 - A Change of the Scenery 03:39
09 - Ev'rytime We Say Goodbye 02:40
10 - Thrill Me 03:23

Состав:
  • Conductor [Orchestra] – Neal Hefti
  • Vocals – Ethel Ennis
Лог проверки качества
foobar2000 1.4.3 / Dynamic Range Meter 1.1.1
log date: 2021-06-25 22:59:20

--------------------------------------------------------------------------------
Analyzed: Ethel Ennis / Change Of Scenery
--------------------------------------------------------------------------------

DR         Peak         RMS     Duration Track
--------------------------------------------------------------------------------
DR11       0.00 dB   -16.31 dB      3:03 01-My Foolish Heart (Remastered)
DR12      -0.49 dB   -14.77 dB      4:54 02-Happiness Is Just a Thing Called Joe (Remastered)
DR13      -0.40 dB   -14.60 dB      2:44 03-Taking a Chance on Love (Remastered)
DR11      -2.25 dB   -17.17 dB      4:02 04-I Remember (The Corn Fields of Home) (Remastered)
DR12       0.00 dB   -15.70 dB      2:33 05-I Still Get a Thrill (Remastered)
DR14      -1.11 dB   -17.11 dB      2:27 06-The Song Is Ended (Remastered)
DR12      -1.40 dB   -17.60 dB      5:11 07-I Cried for You (Remastered)
DR11      -1.36 dB   -15.67 dB      3:40 08-A Change of the Scenery (Remastered)
DR12      -1.53 dB   -15.62 dB      2:40 09-Ev'rytime We Say Goodbye (Remastered)
DR9       -3.35 dB   -16.21 dB      3:24 10-Thrill Me (Remastered)
--------------------------------------------------------------------------------

Number of tracks:  10
Official DR value: DR12

Samplerate:        44100 Hz
Channels:          2
Bits per sample:   24
Bitrate:           1326 kbps
Codec:             FLAC
================================================================================
Приватный:
Нет (DHT включён)
Размер:
352.40 Мб (369,518,644 байт) » файлов: 15
Участники:
0 раздают, 0 качают (0 участников всего)
Внешние участники:
1 раздают, 0 качают (1 участников всего) [ Обновить ]
17:41
484
Нет комментариев. Ваш будет первым!