Вы используете незарегистрированную версию компонента "Вкладки"!

Поиск

2017 Hajime Mizoguchi - Music Book. In The Mood For Jazz {King} [DSD128]

2017 Hajime Mizoguchi - Music Book. In The Mood For Jazz {King} [DSD128]
Издатель (лейбл):
Доп. инфо:

Формат записи/Источник записи: [DSD][OF]
Наличие водяных знаков: Нет
Год издания/переиздания диска: 2017
Продолжительность: 01:01:34
Наличие сканов в содержимом раздачи: Только обложка альбома

Контейнер: DSF (*.dsf)
Тип рипа: tracks
Разрядность: 128(5,6 MHz/1 Bit)
Формат: DSD
Количество каналов: 2.0

Источник (релизер): https://www.e-onkyo.com/music/album/nopa1308/

Лог проверки качества
foobar2000 1.4.8 / Замер динамического диапазона (DR) 1.1.1
Дата отчёта:  2019-11-28 22:23:29

--------------------------------------------------------------------------------
Анализ:   Hajime Mizoguchi / Music Book. In The Mood For Jazz
--------------------------------------------------------------------------------

DR         Пики         RMS           Продолжительность трека
--------------------------------------------------------------------------------
DR12      -7.09 дБ   -23.28 дБ      5:19 01-Tokyo Tower Theme
DR12      -1.15 дБ   -19.38 дБ      5:24 02-Angel
DR12      -4.74 дБ   -19.96 дБ      3:55 03-Sekai No Shasou Kara
DR11      -7.26 дБ   -21.27 дБ      4:51 04-A Green Book
DR11      -7.61 дБ   -22.02 дБ      6:07 05-Once - Itsuka Tooi Hi
DR12      -4.20 дБ   -21.38 дБ      5:11 06-Tenki Yohou No Koibito
DR11      -6.99 дБ   -21.83 дБ      5:12 07-Jazz Mid Cello
DR11      -5.31 дБ   -20.59 дБ      5:22 08-Pavane
DR12      -5.22 дБ   -19.69 дБ      5:48 09-Matenrou To Kyouryuu
DR11      -5.70 дБ   -20.68 дБ      5:08 10-Close To The Music
DR11      -4.32 дБ   -20.08 дБ      4:44 11-Someone To Watch Over Me
DR11      -5.34 дБ   -20.45 дБ      4:32 12-Mr. Lonely
--------------------------------------------------------------------------------

Количество треков: 12
Реальные значения DR: DR11

Частота:   5644800 Гц / Частота PCM: 176400 Гц
Каналов:   2
Разрядность:   1
Битрейт:   11290 кбит/с
Кодек:   DSD128
================================================================================
Any questions - support@pro-jazz.com. Есть вопросы - support@pro-jazz.com
16:11
327
Нет комментариев. Ваш будет первым!