Вы используете незарегистрированную версию компонента "Вкладки"!

Поиск

1955 Dave Brubeck Quartet - Jazz: Red Hot and Cool (2019) {RevOla} [24-44,1]

1955 Dave Brubeck Quartet - Jazz: Red Hot and Cool (2019) {RevOla} [24-44,1]
Дата записи диска:
12 октября 1954 - 9 августа 1955
Место записи:
Basin Street Night Club, New York City, NY
Издатель (лейбл):
Доп. инфо:

Формат записи/Источник записи: [TR24][OF]
Издание: Remastered
Год издания/переиздания диска: 1955/2019
Издатель (лейбл): RevOla
Продолжительность: 00:57:08
Наличие сканов в содержимом раздачи: Нет

Контейнер: FLAC (*.flac)
Тип рипа: tracks
Разрядность: 24/44,1
Количество каналов: 2.0

Источник (релизер): Qobuz

Лог проверки качества
foobar2000 1.4.3 / Dynamic Range Meter 1.1.1
log date: 2019-11-28 18:38:45

--------------------------------------------------------------------------------
Analyzed: The Dave Brubeck Quartet / Jazz, Red Hot And Cool
--------------------------------------------------------------------------------

DR         Peak         RMS     Duration Track
--------------------------------------------------------------------------------
DR12       0.00 dB   -15.97 dB      5:08 01-Lover (Remastered)
DR13       0.00 dB   -15.83 dB     10:40 02-Little Girl Blue (Remastered)
DR14       0.00 dB   -15.71 dB      7:23 03-Fare Thee Well, Annabelle (Remastered)
DR11       0.00 dB   -14.24 dB      5:23 04-Sometimes I'm Happy (Remastered)
DR14       0.00 dB   -19.22 dB      2:46 05-The Duke (Remastered)
DR12      -0.83 dB   -15.49 dB      5:55 06-Indiana (Remastered)
DR14       0.00 dB   -16.04 dB      8:47 07-Love Walked In (Remastered)
DR13      -2.00 dB   -17.55 dB      4:12 08-Taking A Chance On Love (Remastered)
DR13      -2.77 dB   -17.99 dB      6:57 09-Closing Time Blues (Remastered)
--------------------------------------------------------------------------------

Number of tracks:  9
Official DR value: DR13

Samplerate:        44100 Hz
Channels:          2
Bits per sample:   24
Bitrate:           1255 kbps
Codec:             FLAC
================================================================================
Any questions - support@pro-jazz.com. Есть вопросы - support@pro-jazz.com
18:55
274
Нет комментариев. Ваш будет первым!