Поиск

2017 Gregory Porter - Nat "King" Cole & Me (Deluxe) {Blue Note 5791481}

2017 Gregory Porter - Nat "King" Cole & Me (Deluxe) {Blue Note 5791481}
Дата записи диска:
май 2017
Дата издания диска:
27 октября 2017
Издатель (лейбл):
Номер по каталогу:
5791481
Носитель:
CD
Битрейт аудио:
lossless
Аудиокодек:
FLAC (*.flac)
Тип рипа:
image+.cue
Время звучания:
01:03:01
Наличие сканов:
  • да
Релизёр (источник):
Копысов

Состав:
 

 

 

Записано в 

  • Air_Studios, Lyndhurst Hall, London, UK
  • Capitol Studios, Hollywood, CA
  • Esplande Studios, New Orleans, LA

01. Mona Lisa 4:19
02. Smile 4:18
03. Nature Boy 3:45
04. L-O-V-E 2:09
05. Quizas, Quizas, Quizas 4:31
06. Miss Otis Regrets 4:31
07. Pick Yourself Up 3:12
08. When Love With King 7:44
09. The Lonely One 4:34
10. Ballerina 2:54
11. I Wonder Who My Daddy Is 3:48
12. But Beautiful 4:33
13. Sweet Lorraine 3:36
14. For All We Know 5:33
15. The Christmas Song 3:46

Лог создания рипа
Exact Audio Copy V1.1 from 23. June 2015

Отчёт EAC об извлечении, выполненном 20. ноября 2017, 19:35

Gregory Porter / Nat 'King' Cole & Me (Deluxe)

Дисковод: ASUS    DRW-24B3ST   Adapter: 0  ID: 0

Режим чтения                 : Достоверность
Использование точного потока : Да
Отключение кэша аудио        : Да
Использование указателей C2  : Нет

Коррекция смещения при чтении                     : 6
Способность читать области Lead-in и Lead-out     : Нет
Заполнение пропущенных сэмплов тишиной            : Да
Удаление блоков с тишиной в начале и конце        : Нет
При вычислениях CRC использовались нулевые сэмплы : Да
Интерфейс                                         : Установленный внешний ASPI-интерфейс

Выходной формат          : Пользовательский кодировщик
Выбранный битрейт        : 1024 kBit/s
Качество                 : Высокий
Добавление ID3-тега      : Нет
Утилита сжатия           : C:\Program Files (x86)\Exact Audio Copy\Flac\flac.exe
Дополнительные параметры : -V -8 -T "Date=%year%" -T "Genre=%genre%" %source%

TOC извлечённого CD

     Трек |   Старт  | Длительность | Начальный сектор | Конечный сектор
    ---------------------------------------------------------------------
       1  |  0:00.00 |    4:18.54   |           0      |      19403
       2  |  4:18.54 |    4:17.40   |       19404      |      38718
       3  |  8:36.19 |    3:44.54   |       38719      |      55572
       4  | 12:20.73 |    2:08.39   |       55573      |      65211
       5  | 14:29.37 |    4:29.56   |       65212      |      85442
       6  | 18:59.18 |    4:31.12   |       85443      |     105779
       7  | 23:30.30 |    3:11.17   |      105780      |     120121
       8  | 26:41.47 |    7:45.01   |      120122      |     154997
       9  | 34:26.48 |    4:33.44   |      154998      |     175516
      10  | 39:00.17 |    2:49.52   |      175517      |     188243
      11  | 41:49.69 |    3:47.63   |      188244      |     205331
      12  | 45:37.57 |    4:31.31   |      205332      |     225687
      13  | 50:09.13 |    3:35.13   |      225688      |     241825
      14  | 53:44.26 |    5:31.56   |      241826      |     266706
      15  | 59:16.07 |    3:44.68   |      266707      |     283574

Характеристики диапазона извлечения и сообщения об ошибках

Выбранный диапазон

     Имя файла C:\Torrents my\Gregory Porter - 2017 - Nat 'King' Cole & Me (Deluxe)\Gregory Porter - Nat 'King' Cole & Me (Deluxe).wav

     Пиковый уровень 100.0 %
     Скорость извлечения 3.5 X
     Качество диапазона 100.0 %
     CRC теста 2DF06D8D
     CRC копии 2DF06D8D
     Копирование... OK

Ошибок не произошло

AccurateRip: сводка

Трек  1  отсутствует в базе данных
Трек  2  отсутствует в базе данных
Трек  3  отсутствует в базе данных
Трек  4  отсутствует в базе данных
Трек  5  отсутствует в базе данных
Трек  6  отсутствует в базе данных
Трек  7  отсутствует в базе данных
Трек  8  отсутствует в базе данных
Трек  9  отсутствует в базе данных
Трек 10  отсутствует в базе данных
Трек 11  отсутствует в базе данных
Трек 12  отсутствует в базе данных
Трек 13  отсутствует в базе данных
Трек 14  отсутствует в базе данных
Трек 15  отсутствует в базе данных

Ни одного трека нет в базе AccurateRip

Конец отчёта

==== Контрольная сумма отчёта 1D0BA8A5896D0E8F05FD963136E3CAF093CD027B97071AFFC3B387F8C7FE4DB5 ====
Лог проверки качества
foobar2000 1.3.16 / Замер динамического диапазона (DR) 1.1.1
Дата отчёта:  2017-11-20 23:48:16

--------------------------------------------------------------------------------
Анализ:   Gregory Porter / Nat 'King' Cole & Me (Deluxe)
--------------------------------------------------------------------------------

DR         Пики         RMS           Продолжительность трека
--------------------------------------------------------------------------------
DR12       0.00 дБ   -16.45 дБ      4:19 01-Mona Lisa
DR12       0.00 дБ   -16.60 дБ      4:18 02-Smile
DR12      -2.20 дБ   -19.95 дБ      3:45 03-Nature Boy
DR15       0.00 дБ   -16.99 дБ      2:09 04-L-O-V-E
DR13       0.00 дБ   -16.41 дБ      4:30 05-Quizas, Quizas, Quizas
DR14       0.00 дБ   -17.80 дБ      4:31 06-Miss Otis Regrets
DR12       0.00 дБ   -15.10 дБ      3:11 07-Pick Yourself Up
DR13       0.00 дБ   -17.76 дБ      7:45 08-When Love Was King
DR12      -1.73 дБ   -18.00 дБ      4:34 09-The Lonely One
DR13       0.00 дБ   -14.94 дБ      2:50 10-Ballerina
DR13      -1.01 дБ   -20.91 дБ      3:48 11-I Wonder Who My Daddy Is
DR13      -0.06 дБ   -17.46 дБ      4:31 12-But Beautiful
DR14       0.00 дБ   -17.15 дБ      3:35 13-Sweet Lorraine
DR13      -1.91 дБ   -19.26 дБ      5:32 14-For All We Know
DR15      -0.91 дБ   -20.56 дБ      3:45 15-The Christmas Song
--------------------------------------------------------------------------------

Количество треков: 15
Реальные значения DR: DR13

Частота:   44100 Гц
Каналов:   2
Разрядность:   16
Битрейт:   746 кбит/с
Кодек:   FLAC
================================================================================
Приватный:
Нет (DHT включён)
Размер:
389.93 Мб (408,871,090 байт) » файлов: 12
Участники:
35 раздают, 0 качают (35 участников всего)
Внешние участники:
19 раздают, 6 качают (25 участников всего) [ Обновить ]
Скорость:
221.46 Кб/c 0/c
18:52
216
RSS
Нет комментариев. Ваш будет первым!