Поиск

2016 Paolo Fresu, Richard Galliano, Jan Lundgren - Mare Nostrum II {ACT Music ACT 9812-2} [CD]

2016 Paolo Fresu, Richard Galliano, Jan Lundgren - Mare Nostrum II {ACT Music ACT 9812-2} [CD]
Издатель (лейбл):
Номер по каталогу:
ACT 9812-2
Треклист:
01. Apnea (5:03)
02. Blue Silence (5:09)
03. Aurore (3:57)
04. Kristallen Den Fina (3:52)
05. Giselle (5:09)
06. E Varie Notti Tre Vie Notai (4:30)
07. Farval (4:47)
08. Gnosienne (4:47)
09. Lili (3:42)
10. Leklat (4:02)
11. Le Livre D'un Pere Sarde (4:11)
12. Si Dolce E Il Tormento (6:11)
Состав:
  • Paolo Fresu — trumpet, fluegelhorn
  • Richard Galliano — accordion, bandoneon, accordina
  • Jan Lundgren — piano
Доп. инфо:

Носитель: CD
Год издания: 2016
Аудиокодек: FLAC (*.flac)
Тип рипа: tracks+.cue
Битрейт аудио: lossless
Продолжительность: 55:21
Rip by jlgt
Наличие сканов в содержимом раздачи: да

Лог создания рипа
Exact Audio Copy V1.0 beta 3 from 29. August 2011
EAC extraction logfile from 8. April 2016, 0:19
Paolo Fresu, Richard Galliano & Jan Lundgren / Mare Nostrum II
Used drive  : PLEXTOR DVDR   PX-L890SA   Adapter: 5  ID: 1
Read mode               : Secure
Utilize accurate stream : Yes
Defeat audio cache      : Yes
Make use of C2 pointers : No
Read offset correction                      : 6
Overread into Lead-In and Lead-Out          : No
Fill up missing offset samples with silence : Yes
Delete leading and trailing silent blocks   : No
Null samples used in CRC calculations       : Yes
Used interface                              : Native Win32 interface for Win NT & 2000
Gap handling                                : Appended to previous track
Used output format              : User Defined Encoder
Selected bitrate                : 128 kBit/s
Quality                         : High
Add ID3 tag                     : No
Command line compressor         : C:\Program Files (x86)\Exact Audio Copy\FLAC\FLAC.EXE
Additional command line options : -8 -V -T "ARTIST=%artist%" -T "TITLE=%title%" -T "ALBUM=%albumtitle%" -T "DATE=%year%" -T "TRACKNUMBER=%tracknr%" -T "TOTALTRACKS=%numtracks%" -T "GENRE=%genre%" -T "ALBUMARTIST=%albumartist%" -T "ALBUM ARTIST=%albumartist%" -T "COMMENT=EAC Secure Mode, Test & Copy, AccurateRip, FLAC -8" %source%
TOC of the extracted CD
     Track |   Start  |  Length  | Start sector | End sector
    ---------------------------------------------------------
        1  |  0:00.00 |  5:03.07 |         0    |    22731
        2  |  5:03.07 |  5:09.12 |     22732    |    45918
        3  | 10:12.19 |  3:57.14 |     45919    |    63707
        4  | 14:09.33 |  3:51.47 |     63708    |    81079
        5  | 18:01.05 |  5:08.66 |     81080    |   104245
        6  | 23:09.71 |  4:30.03 |    104246    |   124498
        7  | 27:39.74 |  4:47.18 |    124499    |   146041
        8  | 32:27.17 |  4:47.23 |    146042    |   167589
        9  | 37:14.40 |  3:41.74 |    167590    |   184238
       10  | 40:56.39 |  4:02.22 |    184239    |   202410
       11  | 44:58.61 |  4:11.07 |    202411    |   221242
       12  | 49:09.68 |  6:10.61 |    221243    |   249053
Track  1
     Filename E:\01 - Apnea.wav
     Pre-gap length  0:00:02.00
     Peak level 95.9 %
     Extraction speed 3.0 X
     Track quality 99.9 %
     Test CRC E39F06C8
     Copy CRC E39F06C8
     Accurately ripped (confidence 1)  [E626E20B]  (AR v2)
     Copy OK
Track  2
     Filename E:\02 - Blue Silence.wav
     Peak level 96.0 %
     Extraction speed 4.1 X
     Track quality 100.0 %
     Test CRC 12876675
     Copy CRC 12876675
     Accurately ripped (confidence 1)  [9F64546A]  (AR v2)
     Copy OK
Track  3
     Filename E:\03 - Aurore.wav
     Peak level 95.7 %
     Extraction speed 4.3 X
     Track quality 100.0 %
     Test CRC 96F29C65
     Copy CRC 96F29C65
     Accurately ripped (confidence 1)  [D2B21864]  (AR v2)
     Copy OK
Track  4
     Filename E:\04 - Kristallen Den Fina.wav
     Peak level 96.0 %
     Extraction speed 4.6 X
     Track quality 100.0 %
     Test CRC 25112778
     Copy CRC 25112778
     Accurately ripped (confidence 1)  [775FCB5E]  (AR v2)
     Copy OK
Track  5
     Filename E:\05 - Giselle.wav
     Peak level 96.3 %
     Extraction speed 5.1 X
     Track quality 100.0 %
     Test CRC 864099E1
     Copy CRC 864099E1
     Accurately ripped (confidence 1)  [C82EC741]  (AR v2)
     Copy OK
Track  6
     Filename E:\06 - E Varie Notti Tre Vie Notai.wav
     Peak level 95.8 %
     Extraction speed 5.3 X
     Track quality 100.0 %
     Test CRC 9C6A31E5
     Copy CRC 9C6A31E5
     Accurately ripped (confidence 1)  [89AE3ABB]  (AR v2)
     Copy OK
Track  7
     Filename E:\07 - Farval.wav
     Peak level 96.1 %
     Extraction speed 5.7 X
     Track quality 100.0 %
     Test CRC 9681CD77
     Copy CRC 9681CD77
     Accurately ripped (confidence 1)  [773A8411]  (AR v2)
     Copy OK
Track  8
     Filename E:\08 - Gnosienne.wav
     Peak level 95.9 %
     Extraction speed 5.9 X
     Track quality 100.0 %
     Test CRC 5DBC4F9B
     Copy CRC 5DBC4F9B
     Accurately ripped (confidence 1)  [E9F9E7D4]  (AR v2)
     Copy OK
Track  9
     Filename E:\09 - Lili.wav
     Peak level 96.1 %
     Extraction speed 5.9 X
     Track quality 100.0 %
     Test CRC 5C01FD84
     Copy CRC 5C01FD84
     Accurately ripped (confidence 1)  [F6CC6E5F]  (AR v2)
     Copy OK
Track 10
     Filename E:\10 - Leklat.wav
     Peak level 96.6 %
     Extraction speed 6.2 X
     Track quality 100.0 %
     Test CRC A913EC9A
     Copy CRC A913EC9A
     Accurately ripped (confidence 1)  [440B92DA]  (AR v2)
     Copy OK
Track 11
     Filename E:\11 - Le Livre D'un Pere Sarde.wav
     Peak level 71.3 %
     Extraction speed 6.5 X
     Track quality 100.0 %
     Test CRC 351F4B20
     Copy CRC 351F4B20
     Accurately ripped (confidence 1)  [1F83503C]  (AR v2)
     Copy OK
Track 12
     Filename E:\12 - Si Dolce E Il Tormento.wav
     Peak level 95.9 %
     Extraction speed 7.1 X
     Track quality 100.0 %
     Test CRC 21781011
     Copy CRC 21781011
     Accurately ripped (confidence 1)  [0A19F715]  (AR v2)
     Copy OK
All tracks accurately ripped
No errors occurred
End of status report
==== Log checksum 99A06B2EFA49761DC498B52148C4FD2C48C483929D90731F85DFD4115FF12C36 ====


Содержание индексной карты (.CUE)
REM GENRE Jazz
REM DATE 2016
REM DISCID 9C0CF80C
REM COMMENT "ExactAudioCopy v1.0b3"
PERFORMER "Paolo Fresu, Richard Galliano & Jan Lundgren"
TITLE "Mare Nostrum II"
FILE "01 - Apnea.wav" WAVE
  TRACK 01 AUDIO
    TITLE "Apnea"
    PERFORMER "Paolo Fresu, Richard Galliano & Jan Lundgren"
    INDEX 01 00:00:00
FILE "02 - Blue Silence.wav" WAVE
  TRACK 02 AUDIO
    TITLE "Blue Silence"
    PERFORMER "Paolo Fresu, Richard Galliano & Jan Lundgren"
    INDEX 01 00:00:00
FILE "03 - Aurore.wav" WAVE
  TRACK 03 AUDIO
    TITLE "Aurore"
    PERFORMER "Paolo Fresu, Richard Galliano & Jan Lundgren"
    INDEX 01 00:00:00
FILE "04 - Kristallen Den Fina.wav" WAVE
  TRACK 04 AUDIO
    TITLE "Kristallen Den Fina"
    PERFORMER "Paolo Fresu, Richard Galliano & Jan Lundgren"
    INDEX 01 00:00:00
FILE "05 - Giselle.wav" WAVE
  TRACK 05 AUDIO
    TITLE "Giselle"
    PERFORMER "Paolo Fresu, Richard Galliano & Jan Lundgren"
    INDEX 01 00:00:00
FILE "06 - E Varie Notti Tre Vie Notai.wav" WAVE
  TRACK 06 AUDIO
    TITLE "E Varie Notti Tre Vie Notai"
    PERFORMER "Paolo Fresu, Richard Galliano & Jan Lundgren"
    INDEX 01 00:00:00
FILE "07 - Farval.wav" WAVE
  TRACK 07 AUDIO
    TITLE "Farval"
    PERFORMER "Paolo Fresu, Richard Galliano & Jan Lundgren"
    INDEX 01 00:00:00
FILE "08 - Gnosienne.wav" WAVE
  TRACK 08 AUDIO
    TITLE "Gnosienne"
    PERFORMER "Paolo Fresu, Richard Galliano & Jan Lundgren"
    INDEX 01 00:00:00
FILE "09 - Lili.wav" WAVE
  TRACK 09 AUDIO
    TITLE "Lili"
    PERFORMER "Paolo Fresu, Richard Galliano & Jan Lundgren"
    INDEX 01 00:00:00
FILE "10 - Leklat.wav" WAVE
  TRACK 10 AUDIO
    TITLE "Leklat"
    PERFORMER "Paolo Fresu, Richard Galliano & Jan Lundgren"
    INDEX 01 00:00:00
FILE "11 - Le Livre D'un Pere Sarde.wav" WAVE
  TRACK 11 AUDIO
    TITLE "Le Livre D'un Pere Sarde"
    PERFORMER "Paolo Fresu, Richard Galliano & Jan Lundgren"
    INDEX 01 00:00:00
FILE "12 - Si Dolce E Il Tormento.wav" WAVE
  TRACK 12 AUDIO
    TITLE "Si Dolce E Il Tormento"
    PERFORMER "Paolo Fresu, Richard Galliano & Jan Lundgren"
    INDEX 01 00:00:00
08:06
644
Нет комментариев. Ваш будет первым!