Вы используете незарегистрированную версию компонента "Вкладки"!

Поиск

2016 Karmen Rõivassepp Quartet - Dance of Sounds (2018) {AMP AT025} [24-88,2]

2016 Karmen Rõivassepp Quartet - Dance of Sounds (2018) {AMP AT025} [24-88,2]
Стили:
Место записи:
FinlandStudio, Aarhus, Denmark
Дата издания диска:
8 июня 2016
Дата переиздания диска:
2018
Номер по каталогу:
AMP Music & Records AT025
Носитель:
WEB
Формат:
PCM
Тип рипа:
tracks+.cue
Контейнер:
FLAC (*.flac)
Количество каналов:
2.0
Разрядность/ЧД:
24/88,2
Время звучания:
00:35:19
Наличие сканов:
web
Страна-производитель диска (релиза):
Norway
Релизёр (источник):
M0p94ok
Лог проверки качества
foobar2000 1.4.3 / Dynamic Range Meter 1.1.1
log date: 2020-04-12 13:58:19

--------------------------------------------------------------------------------
Analyzed: Karmen Rõivassepp Quartet / Dance of Sounds
--------------------------------------------------------------------------------

DR         Peak         RMS     Duration Track
--------------------------------------------------------------------------------
DR12      -0.41 dB   -14.44 dB      5:59 01-Dance of Sounds
DR13      -0.43 dB   -16.60 dB      3:20 02-Sa Tulid
DR13      -0.42 dB   -15.57 dB      5:47 03-Hey Tiger
DR13      -0.42 dB   -15.75 dB      4:16 04-Send in the Clowns
DR12      -1.13 dB   -16.27 dB      1:53 05-Lauliku Talveüksindus
DR12      -0.43 dB   -15.45 dB      3:41 06-Neither Nor
DR11      -0.41 dB   -14.43 dB      5:03 07-Torm
DR13      -1.98 dB   -19.11 dB      5:26 08-Song for You
--------------------------------------------------------------------------------

Number of tracks:  8
Official DR value: DR12

Samplerate:        88200 Hz
Channels:          2
Bits per sample:   24
Bitrate:           2547 kbps
Codec:             FLAC
================================================================================
Any questions - support@pro-jazz.com. Есть вопросы - support@pro-jazz.com
14:09
282
Нет комментариев. Ваш будет первым!