Вы используете незарегистрированную версию компонента "Вкладки"!

Поиск

1972 Hank Crawford - Help Me Make It Through the Night (2017) {King} [24-192]

1972 Hank Crawford - Help Me Make It Through the Night (2017) {King} [24-192]
Стили:
Дата записи диска:
август 1971 - январь 1972
Место записи:
Van Gelder Recording Studio, Englewood Cliffs, NJ
Издатель (лейбл):
Доп. инфо:

Формат записи/Источник записи: [TR24][OF]
Издание: Remastered
Год издания/переиздания диска: 1972/2017
Продолжительность: 00:33:38
Наличие сканов в содержимом раздачи: Нет

Контейнер: FLAC (*.flac)
Тип рипа: tracks
Разрядность: 24/192
Количество каналов: 2.0

Источник (релизер): King Jazz & Classics

Лог проверки качества
foobar2000 1.4.3 / Dynamic Range Meter 1.1.1
log date: 2020-02-11 18:24:32

--------------------------------------------------------------------------------
Analyzed: Hank Crawford / Help Me Make It Through The Night
--------------------------------------------------------------------------------

DR         Peak         RMS     Duration Track
--------------------------------------------------------------------------------
DR10      -0.10 dB   -11.60 dB      5:54 01-Help Me Make It Through the Night
DR11      -0.10 dB   -14.53 dB      3:26 02-Brian's Song
DR9       -0.10 dB   -12.02 dB      5:37 03-Uncle Funky
DR10      -0.10 dB   -12.25 dB      2:54 04-In the Wee Small Hours of the Morning
DR10      -0.10 dB   -12.83 dB      4:23 05-Go Awaay Little Girl
DR9       -0.10 dB   -12.72 dB      4:08 06-Imagine
DR11      -0.10 dB   -12.80 dB      3:11 07-Ham
DR11      -0.10 dB   -13.77 dB      4:08 08-The Sun Died
--------------------------------------------------------------------------------

Number of tracks:  8
Official DR value: DR10

Samplerate:        192000 Hz
Channels:          2
Bits per sample:   24
Bitrate:           5578 kbps
Codec:             FLAC
================================================================================
Any questions - support@pro-jazz.com. Есть вопросы - support@pro-jazz.com
12:05
271
Нет комментариев. Ваш будет первым!