Вы используете незарегистрированную версию компонента "Вкладки"!

Поиск

2016 Joyce Yuille - Lady Be Good {Venus} [DSD64]

2016 Joyce Yuille - Lady Be Good {Venus} [DSD64]
Стили:
Дата записи диска:
5 июля - 6 июля 2016
Место записи:
Riverside Studio, Torino, Italy
Дата издания диска:
17 мая 2017
Издатель (лейбл):
Номер по каталогу:
VHGD-241
Битрейт аудио:
lossless
Доп. инфо:

Формат записи/Источник записи: [SACD-R][OF]
Наличие водяных знаков: Нет
Год издания/переиздания диска: 2016/2017
Продолжительность: 00:44:57
Наличие сканов в содержимом раздачи: Только обложка альбома

Контейнер: ISO (*.iso)
Тип рипа: image
Разрядность: 64(2,8 MHz/1 Bit)
Формат: DSD
Количество каналов: 2.0

Доп. информация: venusrecords
Источник (релизер): jazzy pic

Лог проверки качества
foobar2000 1.6.4 / Замер динамического диапазона (DR) 1.1.1
Дата отчёта:  2021-02-14 16:39:02

--------------------------------------------------------------------------------
Анализ:   JOYCE YUILLE / Lady Be Good
--------------------------------------------------------------------------------

DR         Пики         RMS           Продолжительность трека
--------------------------------------------------------------------------------
DR6       -4.99 дБ   -15.01 дБ      3:23 01-Solitude
DR8       -5.03 дБ   -16.36 дБ      6:19 02-Beautiful Love
DR7       -4.95 дБ   -14.16 дБ      4:11 03-I Didn't Know What Time It Was
DR8       -5.02 дБ   -15.28 дБ      3:35 04-Teach Me Tonight
DR6       -5.00 дБ   -13.07 дБ      4:39 05-Lady Be Good
DR6       -4.98 дБ   -12.17 дБ      2:16 06-Just One Of Those Things
DR7       -4.97 дБ   -14.93 дБ      4:37 07-I Can't Give You Anything But Love
DR7       -4.92 дБ   -13.70 дБ      3:24 08-Sometimes I'm Happy
DR8       -5.06 дБ   -16.70 дБ      5:19 09-Here's That Rainy Days
DR8       -5.03 дБ   -14.73 дБ      3:34 10-September Song
DR6       -5.01 дБ   -12.19 дБ      3:41 11-Cherokee
--------------------------------------------------------------------------------

Количество треков: 11
Реальные значения DR: DR7

Частота:  2822400 Гц / Частота PCM: 88200 Гц
Каналов:  2
Разрядность:   1
Битрейт:  5645 кбит/с
Кодек:   DSD64
================================================================================
Any questions - support@pro-jazz.com. Есть вопросы - support@pro-jazz.com
12:11
110
Нет комментариев. Ваш будет первым!