Поиск

2016 Harry Allen - The Candy Men {Arbors ARCD 19450} [CD]

Стили:
Издатель (лейбл):
Номер по каталогу:
ARCD 19450
Треклист:

01. Four Brothers [0:04:03.73]
02. The One for You [0:07:54.52]
03. How are Things in Glossa Morra' [0:03:06.81]
04. After You've Gone [0:09:07.77]
05. I Wished on the Moon [0:08:14.12]
06. Blues in the Morning [0:08:59.38]
07. I Can See Forever [0:04:53.49]
08. The Red Door [0:04:37.08]
09. The Cany Man [0:04:44.64]
10. So There [0:03:50.44]
11. Nobody's Heart [0:04:14.34]
12. The Party's Over [0:03:12.56]

Доп. инфо:
Лог создания рипа
Exact Audio Copy V1.3 from 2. September 2016
EAC extraction logfile from 9. March 2017, 18:34
Harry Allen / The Candy Men
Used drive : Optiarc DVD RW AD-7243S Adapter: 1 ID: 0
Read mode : Secure
Utilize accurate stream : Yes
Defeat audio cache : Yes
Make use of C2 pointers : No
Read offset correction : 48
Overread into Lead-In and Lead-Out : No
Fill up missing offset samples with silence : Yes
Delete leading and trailing silent blocks : No
Null samples used in CRC calculations : Yes
Used interface : Native Win32 interface for Win NT & 2000
Used output format : User Defined Encoder
Selected bitrate : 112 kBit/s
Quality : High
Add ID3 tag : No
Command line compressor : C:\Program Files (x86)\Exact Audio Copy\Flac\flac.exe
Additional command line options : -T "artist=%artist%" -T "title=%title%" -T "album=%albumtitle%" -T "date=%year%" -T "tracknumber=%tracknr%" -T "genre=%genre%" -5 %source%
TOC of the extracted CD
Track | Start | Length | Start sector | End sector
---------------------------------------------------------
1 | 0:00.00 | 4:03.55 | 0 | 18279
2 | 4:03.55 | 7:54.39 | 18280 | 53868
3 | 11:58.19 | 3:06.61 | 53869 | 67879
4 | 15:05.05 | 9:07.58 | 67880 | 108962
5 | 24:12.63 | 8:14.09 | 108963 | 146021
6 | 32:26.72 | 8:59.29 | 146022 | 186475
7 | 41:26.26 | 4:53.37 | 186476 | 208487
8 | 46:19.63 | 4:37.06 | 208488 | 229268
9 | 50:56.69 | 4:44.48 | 229269 | 250616
10 | 55:41.42 | 3:50.33 | 250617 | 267899
11 | 59:32.00 | 4:14.26 | 267900 | 286975
12 | 63:46.26 | 3:12.42 | 286976 | 301417
Range status and errors
Selected range
Filename H:\sax\Новая папка\EAC\Harry Allen - Candy Man\4\Harry Allen - The Candy Men.wav
Peak level 98.9 %
Extraction speed 4.2 X
Range quality 100.0 %
Test CRC 0698941B
Copy CRC 0698941B
Copy OK
No errors occurred
AccurateRip summary
Track 1 not present in database
Track 2 not present in database
Track 3 not present in database
Track 4 not present in database
Track 5 not present in database
Track 6 not present in database
Track 7 not present in database
Track 8 not present in database
Track 9 not present in database
Track 10 not present in database
Track 11 not present in database
Track 12 not present in database
None of the tracks are present in the AccurateRip database
End of status report
---- CUETools DB Plugin V2.1.6
[CTDB TOCID: 5qvzuSKyudbWRPR3tBQYGOzZtCA-] found
Submit result: already submitted
Track | CTDB Status
1 | (5/5) Accurately ripped
2 | (5/5) Accurately ripped
3 | (5/5) Accurately ripped
4 | (5/5) Accurately ripped
5 | (5/5) Accurately ripped
6 | (5/5) Accurately ripped
7 | (5/5) Accurately ripped
8 | (5/5) Accurately ripped
9 | (5/5) Accurately ripped
10 | (5/5) Accurately ripped
11 | (5/5) Accurately ripped
12 | (5/5) Accurately ripped
==== Log checksum 5760923F84E607088DFE367BC8339B80177ED917967DCCA48B7698F87EE7B157 ====
Содержание индексной карты (.CUE)
REM GENRE Jazz
REM DATE 2016
REM DISCID B70FB20C
REM COMMENT "ExactAudioCopy v1.3"
PERFORMER "Harry Allen"
TITLE "The Candy Men"
REM COMPOSER ""
FILE "Harry Allen - The Candy Men.flac" WAVE
TRACK 01 AUDIO
TITLE "Four Brothers "
PERFORMER "Harry Allen"
REM COMPOSER "Jimmy Giuffre"
INDEX 01 00:00:00
TRACK 02 AUDIO
TITLE "The One for You"
PERFORMER "Harry Allen"
REM COMPOSER "Harry Allen / Judy Carmichael "
INDEX 01 04:03:55
TRACK 03 AUDIO
TITLE "How are Things in Glossa Morra'"
PERFORMER "Harry Allen"
REM COMPOSER "E.Y. 'Yip' Harburg / Burton Lane "
INDEX 01 11:58:19
TRACK 04 AUDIO
TITLE "After You've Gone"
PERFORMER "Harry Allen"
REM COMPOSER "Henry Creamer / Turner Layton "
INDEX 01 15:05:05
TRACK 05 AUDIO
TITLE "I Wished on the Moon"
PERFORMER "Harry Allen"
REM COMPOSER "Dorothy Parker / Ralph Rainger "
INDEX 01 24:12:63
TRACK 06 AUDIO
TITLE "Blues in the Morning"
PERFORMER "Harry Allen"
REM COMPOSER "Harry Allen"
INDEX 01 32:26:72
TRACK 07 AUDIO
TITLE "I Can See Forever"
PERFORMER "Harry Allen"
REM COMPOSER "Harry Allen / Judy Carmichael "
INDEX 01 41:26:26
TRACK 08 AUDIO
TITLE "The Red Door"
PERFORMER "Harry Allen"
REM COMPOSER "Gerry Mulligan / Zoot Sims "
INDEX 01 46:19:63
TRACK 09 AUDIO
TITLE "The Cany Man"
PERFORMER "Harry Allen"
REM COMPOSER "Leslie Bricusse / Anthony Newley "
INDEX 01 50:56:69
TRACK 10 AUDIO
TITLE "So There"
PERFORMER "Harry Allen"
REM COMPOSER "Harry Allen"
INDEX 01 55:41:42
TRACK 11 AUDIO
TITLE "Nobody's Heart"
PERFORMER "Harry Allen"
REM COMPOSER "Lorenz Hart / Richard Rodgers "
INDEX 01 59:32:00
TRACK 12 AUDIO
TITLE "The Party's Over"
PERFORMER "Harry Allen"
REM COMPOSER "Betty Comden / Adolph Green / Jule Styne "
INDEX 01 63:46:26
Лог проверки качества
AUDIOCHECKER v2.0 beta (build 457) - by Dester - opdester@freemail.hu
~~~~~~~~~~~~~~~~~~~~~~~~~~~~~~~~~~
Начато: среда, 08. 03. 2017. - 17:32.34
Найдено файлов: 1
1 -===- \Harry Allen - Candy Man\Harry Allen - The Candy Men\Harry Allen - The Candy Men.flac
Извлечение успешно выполнено
Заключение: этот трек - CDDA с вероятностью 100%
Временный файл удалён.
Завершено: среда, 08. 03. 2017. - 17:36.36 (Время операции: 0:04.02)
Приватный:
Нет (DHT включён)
Размер:
437.52 Мб (458,775,408 байт) » файлов: 4
Участники:
7 раздают, 0 качают (7 участников всего)
Внешние участники:
1 раздают, 0 качают (1 участников всего) [ Обновить ]
No seeders - write a personal message to user M0p94ok. Нет сидеров - пишите личное сообщение пользователю M0p94ok.
21:08
41
Нет комментариев. Ваш будет первым!