Вы используете незарегистрированную версию компонента "Вкладки"!

Поиск

2016 Cory Weeds Quintet - It's Easy To Remember {Cellar Live} [24-96]

2016 Cory Weeds Quintet - It's Easy To Remember {Cellar Live} [24-96]
Стили:
Место записи:
Smalls Jazz Club, New York City
Битрейт аудио:
lossless
Доп. инфо:

Формат записи/Источник записи: [TR24][OF]
Год издания/переиздания диска: 2016
Издатель (лейбл): Cellar Live
Продолжительность: 00:41:08
Наличие сканов в содержимом раздачи: Нет
Контейнер: FLAC (*.flac)
Тип рипа: tracks
Разрядность: 24/96
Количество каналов: 2.0

Источник (релизер): Qobuz

Лог проверки качества
foobar2000 1.3.7 / Dynamic Range Meter 1.1.1
log date: 2020-01-16 18:28:58

--------------------------------------------------------------------------------
Analyzed: Cory Weeds Quintet / Its Easy to Remember
--------------------------------------------------------------------------------

DR         Peak         RMS     Duration Track
--------------------------------------------------------------------------------
DR11      -0.11 dB   -12.24 dB      6:17 01-With Prestige
DR10      -0.11 dB   -12.32 dB      5:40 02-Expose
DR10      -0.11 dB   -12.87 dB      5:24 03-Candy Man
DR10      -0.11 dB   -11.29 dB      5:52 04-Its Easy To Remember
DR10      -0.11 dB   -12.71 dB      6:06 05-Bossa For All
DR10      -0.11 dB   -12.87 dB      5:56 06-Kelp
DR10      -0.11 dB   -12.37 dB      5:59 07-The Mabe
--------------------------------------------------------------------------------

Number of tracks:  7
Official DR value: DR10

Samplerate:        96000 Hz
Channels:          2
Bits per sample:   24
Bitrate:           3285 kbps
Codec:             FLAC
================================================================================
Any questions - support@pro-jazz.com. Есть вопросы - support@pro-jazz.com
07:04
230
Нет комментариев. Ваш будет первым!