Вы используете незарегистрированную версию компонента "Вкладки"!

Поиск

2013 Joachim Kühn Trio - Voodoo Sense {ACT Music} [24-44,1]

2013 Joachim Kühn Trio - Voodoo Sense {ACT Music} [24-44,1]
Дата записи диска:
26-28 декабря 2011; 1, 16 февраля, 15 апреля, 13 ноября 2012
Место записи:
Sale Music Studio, Morocco; Studio Sextan, Malakoff (Paris)
Издатель (лейбл):
Номер по каталогу:
ACT 9555-2
Носитель:
WEB
Формат:
PCM
Тип рипа:
tracks+.cue
Контейнер:
FLAC (*.flac)
Количество каналов:
2.0
Разрядность/ЧД:
24/44,1
Битрейт аудио:
lossless
Время звучания:
00:59:20
Наличие сканов:
да
Страна-производитель диска (релиза):
Germany
Релизёр (источник):
M0p94ok
Лог проверки качества
foobar2000 1.4.3 / Dynamic Range Meter 1.1.1
log date: 2020-06-02 07:38:52

--------------------------------------------------------------------------------
Analyzed: Joachim Kühn Trio, Archie Shepp, Majid Bekkas, Ramon Lopez / Voodoo Sense
--------------------------------------------------------------------------------

DR         Peak         RMS     Duration Track
--------------------------------------------------------------------------------
DR6       -0.28 dB    -8.49 dB     19:55 01-Kulu Se Mama
DR6       -0.29 dB    -7.97 dB      8:45 02-Gbalele
DR8       -0.28 dB   -10.38 dB      8:00 03-L'eternal Voyage
DR6       -0.29 dB    -9.11 dB      5:21 04-Voodoo Sense
DR7       -0.28 dB   -11.17 dB      8:03 05-Crossing the Mirror
DR6       -0.29 dB    -8.09 dB      9:22 06-Firehorse
--------------------------------------------------------------------------------

Number of tracks:  6
Official DR value: DR7

Samplerate:        44100 Hz
Channels:          2
Bits per sample:   24
Bitrate:           1633 kbps
Codec:             FLAC
================================================================================
Any questions - support@pro-jazz.com. Есть вопросы - support@pro-jazz.com
07:52
281
Нет комментариев. Ваш будет первым!