Вы используете незарегистрированную версию компонента "Вкладки"!

Поиск

2015 VA - Esoteric Impulse! 6 Great Jazz Boxset {Impulse!, Esoteric} [DSD64]

2015 VA - Esoteric Impulse! 6 Great Jazz Boxset {Impulse!, Esoteric} [DSD64]
Издатель (лейбл):
Доп. инфо:

Формат записи/Источник записи: [SACD-R][OF]
Наличие водяных знаков: Нет
Год издания/переиздания диска: 2015
Продолжительность: 03:29:23
Наличие сканов в содержимом раздачи: Только обложка альбома

Контейнер: DSF (*.dsf)
Тип рипа: image
Разрядность: 64(2,8 MHz/1 Bit)
Формат: DSD
Количество каналов: 2.0

Доп. информация: ESSI-90133/38 (6 discs)
Re-mastering
Producer: Motoaki Ohmachi (ESOTERIC COMPANY)
Mastering Engineer: Kazuie Sugimoto (Victor Creative Media Co., Ltd. Mastering Center)
Источник (релизер): wardrobemalfunction (PS³SACD)
http://www.esoteric.jp/products/esoteric/essi90133_38/indexe.html

Лог проверки качества
=================================================
foobar2000 1.3.17 / Dynamic Range Meter 1.1.1
log date: 2019-10-13 01:51:57
--------------------------------------------------------------------------------
Analyzed: John Coltrane Quartet / Ballads
--------------------------------------------------------------------------------
DR           Peak          RMS     Duration      Track
--------------------------------------------------------------------------------
DR12   -6.63 dB   -22.44 dB   4:22   01-Say It (Over And Over Again)
DR13   -6.63 dB   -21.77 dB   5:16   02-You Don't Know What Love Is
DR13   -6.85 dB   -22.03 dB   4:26   03-Too Young To Go Steady
DR11   -6.35 dB   -20.39 dB   3:41   04-All Or Nothing At All
DR13   -8.38 dB   -24.90 dB   4:56   05-I Wish I Knew
DR13   -7.26 dB   -23.90 dB   3:49   06-What's New
DR14   -6.59 dB   -24.07 dB   2:51   07-It's Easy To Remember
DR13 -10.15 dB   -25.57 dB   3:14   08-Nancy (With The Laughing Face)
--------------------------------------------------------------------------------
Number of tracks: 8
Official DR value: DR13

Samplerate: 2822400 Hz / PCM Samplerate: 176400 Hz
Channels: 2
Bits per sample: 1
Bitrate: 5645 kbps
Codec: DSD64
=================================================
================================================
foobar2000 1.3.17 / Dynamic Range Meter 1.1.1
log date: 2019-10-13 01:56:07
------------------------------------------------------------------------------
Analyzed: Sonny Rollins / On Impulse!
------------------------------------------------------------------------------
DR           Peak          RMS     Duration       Track
------------------------------------------------------------------------------
DR14   -6.49 dB   -23.68 dB    7:12   01-On Green Dolphin Street
DR16   -6.99 dB   -25.92 dB  11:14   02-Everything Happens To Me
DR13   -6.29 dB   -20.70 dB    5:30   03-Hold 'Em Joe
DR13   -7.65 dB   -23.64 dB    3:46   04-Blue Room
DR13   -6.64 dB   -22.49 dB    6:58   05-Three Little Words
------------------------------------------------------------------------------
Number of tracks: 5
Official DR value: DR14

Samplerate: 2822400 Hz / PCM Samplerate: 176400 Hz
Channels: 2
Bits per sample: 1
Bitrate: 5645 kbps
Codec: DSD64
================================================

===================================================
foobar2000 1.3.17 / Dynamic Range Meter 1.1.1
log date: 2019-10-13 01:58:42
------------------------------------------------------------------------------------
Analyzed: Roy Haynes Quartet / Out Of The Afternoon
------------------------------------------------------------------------------------
DR         Peak         RMS     Duration Track
------------------------------------------------------------------------------------
DR13  -4.37 dB   -21.08 dB   6:44   01-Moon Ray
DR13  -5.08 dB   -20.87 dB   6:40   02-Fly Me To The Moon (In Other Words)
DR12  -4.49 dB   -20.85 dB   6:01   03-Raoul
DR15  -5.25 dB   -23.67 dB   4:12   04-Snap Crackle
DR13  -3.93 dB   -20.64 dB   5:48   05-If I Should Lose You
DR15  -5.50 dB   -24.23 dB   4:41   06-Long Wharf
DR16  -5.46 dB   -24.56 dB   3:29   07-Some Other Spring
------------------------------------------------------------------------------------
Number of tracks: 7
Official DR value: DR14

Samplerate: 2822400 Hz / PCM Samplerate: 176400 Hz
Channels: 2
Bits per sample: 1
Bitrate: 5645 kbps
Codec: DSD64
====================================================
===========================================
foobar2000 1.3.17 / Dynamic Range Meter 1.1.1
log date: 2019-10-13 02:01:01
----------------------------------------------------------------------
Analyzed: Oliver Nelson / The Blues And The Abstract Truth
----------------------------------------------------------------------
DR         Peak         RMS     Duration Track
----------------------------------------------------------------------
DR12  -7.41 dB   -24.04 dB   8:50   01-Stolen Moments
DR11  -6.88 dB   -22.00 dB   4:45   02-Hoe Down
DR12  -6.59 dB   -22.74 dB   5:30   03-Cascades
DR11  -6.46 dB   -21.75 dB   6:25   04-Yearnin'
DR10  -6.21 dB   -20.12 dB   4:37   05-Butch And Butch
DR11  -6.55 dB   -21.51 dB   6:36   06-Teenie's Blues
----------------------------------------------------------------------
Number of tracks: 6
Official DR value: DR11

Samplerate: 2822400 Hz / PCM Samplerate: 176400 Hz
Channels: 2
Bits per sample: 1
Bitrate: 5645 kbps
Codec: DSD64
===========================================
============================================
foobar2000 1.3.17 / Dynamic Range Meter 1.1.1
log date: 2019-10-13 02:07:33
-----------------------------------------------------------------------
Analyzed: Count Basie / Count Basie And The Kansas City 7
-----------------------------------------------------------------------
DR          Peak          RMS     Duration       Track
-----------------------------------------------------------------------
DR13  -4.85 dB   -21.91 dB   4:44   01-Oh, Lady, Be Good
DR12  -5.33 dB   -21.31 dB   4:08   02-Secrets
DR14  -6.25 dB   -24.33 dB   4:17   03-I Want A Little Girl
DR13  -4.84 dB   -21.41 dB   4:08   04-Shoe Shine Boy
DR13  -4.87 dB   -23.17 dB   5:29   05-Count's Place
DR12  -5.17 dB   -20.80 dB   4:13   06-Senator Whitehead
DR11  -4.05 dB   -19.90 dB   4:29   07-Tally-Ho, Mr. Basie!
DR12  -5.10 dB   -21.19 dB   5:00   08-What'cha Talkin'?
-----------------------------------------------------------------------
Number of tracks: 8
Official DR value: DR13

Samplerate: 2822400 Hz / PCM Samplerate: 176400 Hz
Channels: 2
Bits per sample: 1
Bitrate: 5645 kbps
Codec: DSD64
============================================

====================================================
foobar2000 1.3.17 / Dynamic Range Meter 1.1.1
log date: 2019-10-13 02:11:15
------------------------------------------------------------------------------------
Analyzed: John Coltrane, Johnny Hartman/John Coltrane & Johnny Hartman
------------------------------------------------------------------------------------
DR          Peak          RMS     Duration      Track
------------------------------------------------------------------------------------
DR13  -4.35 dB   -21.56 dB   5:24   01-They Say It's Wonderful
DR12  -8.18 dB   -23.47 dB   5:34   02-Dedicated To You
DR13  -6.44 dB   -22.17 dB   4:58   03-My One And Only Love
DR12  -4.93 dB   -21.21 dB   5:30   04-Lush Life
DR12  -5.63 dB   -21.14 dB   5:37   05-You Are Too Beautiful
DR12  -5.56 dB   -21.21 dB   4:20   06-Autumn Serenade
------------------------------------------------------------------------------------
Number of tracks: 6
Official DR value: DR12

Samplerate: 2822400 Hz / PCM Samplerate: 176400 Hz
Channels: 2
Bits per sample: 1
Bitrate: 5645 kbps
Codec: DSD64
====================================================
Any questions - support@pro-jazz.com. Есть вопросы - support@pro-jazz.com
22:10
501
Нет комментариев. Ваш будет первым!