Поиск

2015 Simon Phillips - Protocol III {in-akustik HD} [24-96]

2015 Simon Phillips - Protocol III {in-akustik HD} [24-96]
Стили:
Издатель (лейбл):
Треклист:

01. Narmada (Phillips) - 5:44
02. Imaginary Ways (Phillips) - 7:03
03. Outlaw (Timmons-Phillips) - 6:10
04. Catalyst (Phillips-Weingart) - 6:29
05. Amrita (Phillips) - 7:26
06. Circle Seven (Weingart-Phillips) - 8:04
07. You Can't But You Can (Phillips) - 8:47
08. Undercover (Phillips-Weingart-Timmons-Tibbs) - 6:58

Доп. инфо:

Формат записи/Источник записи: [TR24][OF]
Наличие водяных знаков: Нет
Год издания/переиздания диска: 2015
Жанр: Fusion, Jazz-Rock
Издатель (лейбл): in-akustik HD
Продолжительность: 00:56:41
Наличие сканов в содержимом раздачи: Буклет PDF

Контейнер: FLAC (*.flac)
Тип рипа: tracks
Разрядность: 24/96
Формат: WAV (flac.ape.wv)
Количество каналов: 2.0

Источник (релизер): highresaudio

Лог проверки качества
foobar2000 1.4.6 / Dynamic Range Meter 1.1.1
log date: 2019-09-30 12:26:42

--------------------------------------------------------------------------------
Analyzed: Simon Phillips / Protocol III
--------------------------------------------------------------------------------

DR         Peak         RMS     Duration Track
--------------------------------------------------------------------------------
DR12       0.00 dB   -13.35 dB      5:44 01-Narmada
DR11       0.00 dB   -13.64 dB      7:03 02-Imaginary Ways
DR12       0.00 dB   -14.88 dB      6:10 03-Outlaw
DR12       0.00 dB   -14.16 dB      6:29 04-Catalyst
DR13       0.00 dB   -16.31 dB      7:26 05-Amrita
DR13       0.00 dB   -15.95 dB      8:04 06-Circle Seven
DR12       0.00 dB   -14.33 dB      8:47 07-You Can't But You Can
DR12       0.00 dB   -14.76 dB      6:58 08-Undercover
--------------------------------------------------------------------------------

Number of tracks:  8
Official DR value: DR12

Samplerate:        96000 Hz
Channels:          2
Bits per sample:   24
Bitrate:           2847 kbps
Codec:             FLAC
================================================================================
Приватный:
Нет (DHT включён)
Размер:
1.13 Гб (1,218,533,864 байт) » файлов: 13
Участники:
0 раздают, 1 качают (1 участников всего)
Внешние участники:
5 раздают, 2 качают (7 участников всего) [ Обновить ]
Скорость:
0/c 452.50 Кб/c
No seeders - write a personal message to user M0p94ok. Нет сидеров - пишите личное сообщение пользователю M0p94ok.
13:08
37
Нет комментариев. Ваш будет первым!